Maynard Ferguson - This is Jazz (1996)

Posted By: JET 1
Maynard Ferguson - This is Jazz (1996)

Maynard Ferguson - This is Jazz (1996)
EAC Rip | FLAC (Image) +CUE, LOG | 341 MB | Covers Included
Genre: Jazz, Soul Jazz | Label: Columbia | Catalog Number: CK 64970

Though purists will find Maynard Ferguson's This Is Jazz, Vol. 16 frustratingly incomplete, it isn't designed for them. The entire This is Jazz series is targeted at casual fans and neophytes, who only want a sampling of a famous jazz artist. In that sense, this disc does its job quite well, featuring both his crossover hits ("Gonna Fly Now," "McArthur Park") and his stabs at big band and bop. Of course, this only is the tip of the iceberg as far as Ferguson's work goes – after all, it only features his music for Columbia – but it's enough to spark the interest of anyone wanting to explore his catalog.

Exact Audio Copy V0.99 prebeta 4 from 23. January 2008

EAC extraction logfile from 22. April 2009, 0:34

Maynard Ferguson / This is Jazz

Used drive : PIONEER DVD-RW DVR-110D Adapter: 1 ID: 0

Read mode : Secure
Utilize accurate stream : Yes
Defeat audio cache : Yes
Make use of C2 pointers : No

Read offset correction : 48
Overread into Lead-In and Lead-Out : No
Fill up missing offset samples with silence : Yes
Delete leading and trailing silent blocks : No
Null samples used in CRC calculations : Yes
Used interface : Native Win32 interface for Win NT & 2000

Used output format : User Defined Encoder
Selected bitrate : 768 kBit/s
Quality : High
Add ID3 tag : No
Command line compressor : C:\Program Files\Exact Audio Copy\Flac\flac.exe
Additional command line options : -8 -V %s -o %d


TOC of the extracted CD

Track | Start | Length | Start sector | End sector
––––––––––––––––––––––––––––-
1 | 0:00.00 | 5:37.05 | 0 | 25279
2 | 5:37.05 | 7:13.52 | 25280 | 57806
3 | 12:50.57 | 10:00.35 | 57807 | 102841
4 | 22:51.17 | 3:59.70 | 102842 | 120836
5 | 26:51.12 | 10:09.65 | 120837 | 166576
6 | 37:01.02 | 4:48.03 | 166577 | 188179
7 | 41:49.05 | 6:03.57 | 188180 | 215461
8 | 47:52.62 | 4:21.08 | 215462 | 235044


Range status and errors

Selected range

Filename E:\torrents.ru\Maynard Ferguson - This is Jazz\Maynard Ferguson - This is Jazz.wav

Peak level 99.8 %
Range quality 100.0 %
Test CRC B8B27BEA
Copy CRC B8B27BEA
Copy OK

No errors occurred


AccurateRip summary

Track 1 accurately ripped (confidence 3) [E468BC7E]
Track 2 accurately ripped (confidence 3) [27FC8833]
Track 3 accurately ripped (confidence 3) [2E0B8CA5]
Track 4 accurately ripped (confidence 3) [201D0198]
Track 5 accurately ripped (confidence 3) [77817765]
Track 6 accurately ripped (confidence 3) [BC2EBC9B]
Track 7 accurately ripped (confidence 3) [DC98CFAA]
Track 8 accurately ripped (confidence 3) [084CA9B8]

All tracks accurately ripped

End of status report


Tracklist:
1 Birdland 5:34
2 Everybody Loves The Blues 7:11
3 Macarthur Park 9:59
4 The Fox Hunt 3:57
5 The Cheshire Cat Walk 10:07
6 'Round Midnight 4:45
7 Gospel John 6:01
8 Gonna Fly Now (Theme From "Rocky") 4:21