Subcategories

McChurch Soundroom - Delusion (1971)

Posted By: v3122
McChurch Soundroom - Delusion (1971)

McChurch Soundroom - Delusion (1971)
EAC | Flac(Image) + Cue + Log & MP3 CBR 320Kbps
2018 | Ohrwaschl Records, OW 012 | RU | ~ 220 or 96 Mb | Scans(jpg) -> 33 Mb
Progressive Rock, Krautrock

Propulsive heavy rock jams including positive groovy arrangements and pastoral chanting flutes. This is an obvious obscurity from German underground and a major contribution in the 70's progressive rock scene. It's not clearly a krautrock experience but an amazing, damaged progressive fusion voyage which can be considered as a cross between Jethro Tull's first bluesy folk efforts, Black Sabbath ("Paranoid" era) The Incredible String Band, Gomorrah and Nosferatu (For the German side). "Delusion" starts as a pastoral introspective voyage with acoustic guitars and flutes, carries on a heavy rock'n roll trip with solid guitar riffs and 70's hard rocking vocals. "Dream of drummer" is an ultra rhythmical, dynamic, frantic drum set with guitar grooves and a fascinating echoing bluesy rock solo at the end of the improvisation. "Time is flying" is an evident hybrid between Black Sabbath heavy rock arguments and Jethro Tull's original sound (rustic bluesy folk) . Brilliantly composed and good technical performances. Highly recommended for 70's prog /psych/ heavy rock collectors.

by philippe, progarchives
McChurch Soundroom - Delusion (1971):

McChurch Soundroom - Delusion (1971)

Tracklist:

01. Delusion 5:47
02. Dream Of A Drummer 9:24
03. Time Is Flying 6:17
04. What Are You Doin' 8:31
05. Trouble Part I 4:29
06. Trouble Part II 5:40

Musicians:

Sandy McChurch [Sandro Chiesa] - vocals, flute
Heiner Althaus - guitar
Alain Veltin - organ
Kurt Hafen - bass
Norbert "Nobbi" Jud - drums


Exact Audio Copy V1.3 from 2. September 2016

Отчёт EAC об извлечении, выполненном 10. апреля 2018, 17:10

McChurch Soundroom / Delusion

Дисковод: ASUS DRW-24B3ST Adapter: 1 ID: 0

Режим чтения : Достоверность
Использование точного потока : Да
Отключение кэша аудио : Да
Использование указателей C2 : Нет

Коррекция смещения при чтении : 6
Способность читать области Lead-in и Lead-out : Нет
Заполнение пропущенных сэмплов тишиной : Да
Удаление блоков с тишиной в начале и конце : Нет
При вычислениях CRC использовались нулевые сэмплы : Да
Интерфейс : Встроенный Win32-интерфейс для Win NT/2000

Выходной формат : Пользовательский кодировщик
Выбранный битрейт : 1024 kBit/s
Качество : Высокий
Добавление ID3-тега : Нет
Утилита сжатия : C:\Program Files (x86)\Exact Audio Copy\Flac\flac.exe
Дополнительные параметры : -V -8 -T "Date=%year%" -T "Genre=%genre%" %source%


TOC извлечённого CD

Трек | Старт | Длительность | Начальный сектор | Конечный сектор
––––––––––––––––––––––––––––––––––-
1 | 0:00.00 | 5:48.17 | 0 | 26116
2 | 5:48.17 | 9:25.10 | 26117 | 68501
3 | 15:13.27 | 6:17.60 | 68502 | 96836
4 | 21:31.12 | 8:30.58 | 96837 | 135144
5 | 30:01.70 | 4:27.40 | 135145 | 155209
6 | 34:29.35 | 5:38.62 | 155210 | 180621


Характеристики диапазона извлечения и сообщения об ошибках

Выбранный диапазон

Имя файла E:\Torrents-seed\McChurch Soundroom - 1971 - Delusion\McChurch Soundroom - Delusion.wav

Пиковый уровень 94.3 %
Скорость извлечения 8.4 X
Качество диапазона 100.0 %
CRC теста 2A38303B
CRC копии 2A38303B
Копирование… OK

Ошибок не произошло


AccurateRip: сводка

Трек 1 точность не определена (достоверность 3) [54765D02], AccurateRip вернул [29B33849] (AR v2)
Трек 2 точность не определена (достоверность 3) [F33F6C0B], AccurateRip вернул [2833EAE6] (AR v2)
Трек 3 точность не определена (достоверность 3) [EC74FE66], AccurateRip вернул [D7763045] (AR v2)
Трек 4 точность не определена (достоверность 3) [9BFBA36B], AccurateRip вернул [1B3FFCDA] (AR v2)
Трек 5 точность не определена (достоверность 3) [6148D375], AccurateRip вернул [A7B64ACA] (AR v2)
Трек 6 точность не определена (достоверность 3) [5C490424], AccurateRip вернул [E1A2646D] (AR v2)

Ни один трек не прошёл проверки на точность
В вашей базе может быть иной вариант штамповки диска

Конец отчёта

==== Контрольная сумма отчёта ED5988C8626C7B29398D28855BE2292839B4C10792D89A2A22020FD030605CE5 ====


[CUETools log; Date: 10.04.2018 19:52:07; Version: 2.1.5]
[AccurateRip ID: 000a1ba1-0035a80c-3e096806] found.
Track [ CRC | V2 ] Status
01 [310ed479|54765d02] (0+0/3) No match
02 [c73359de|f33f6c0b] (0+0/3) No match
03 [00a67521|ec74fe66] (0+0/3) No match
04 [e552d7c8|9bfba36b] (0+0/3) No match
05 [5e60333f|6148d375] (0+0/3) No match
06 [ffdefc34|5c490424] (0+0/3) No match
Offsetted by 938:
01 [29b33849] (3/3) Accurately ripped
02 [2833eae6] (3/3) Accurately ripped
03 [d7763045] (3/3) Accurately ripped
04 [1b3ffcda] (3/3) Accurately ripped
05 [a7b64aca] (3/3) Accurately ripped
06 [e1a2646d] (3/3) Accurately ripped

Track Peak [ CRC32 ] [W/O NULL] [ LOG ]
– 94,3 [2A38303B] [4B79FCD1] CRC32
01 91,2 [905D804B] [8A9A97B6]
02 80,3 [F2B13DFA] [4E5B8B42]
03 84,2 [3914423F] [E316EE6D]
04 85,6 [56B31100] [BB2AF78B]
05 94,3 [50B891F5] [BA2FB40D]
06 82,5 [C3624BEA] [A0AFEC6E]


McChurch Soundroom - Delusion (1971)

All thanks go to Копысов

Download McChurch Soundroom - Delusion (1971):