Subcategories

Megadeth - Warheads On Foreheads (2019) {3CD Box Set, Remastered}

Posted By: popsakov
Megadeth - Warheads On Foreheads (2019) {3CD Box Set, Remastered}

Megadeth - Warheads On Foreheads (2019) {3CD Box Set, Remastered}
EAC Rip | FLAC (Img) + Cue + Log ~ 1,28 Gb | Full Scans ~ 105 Mb | 02:46:30 | RAR 5% Recovery
Heavy Metal, Speed Metal, Thrash Metal | Capitol Records #00602577033315

Issued just a few years shy of their 40th year in existence, the massive 35-song compilation Warheads on Foreheads draws from every era of Megadeth's twisting but always menacing tenure. The tracks were hand-selected by bandleader Dave Mustaine, cherrypicking stand-out selections from each of their 15 studio albums (as well as a few outlier tracks) and presenting them in chronological order. Beginning with three of the stronger songs from 1985's Killing Is My Business… And Business Is Good, Mustaine charts Megadeth's progression through their string of classic thrashy '80s albums into the more accessible sounds and heightened production of their early-'90s work. Things taper off after that, with only one or two picks from most of the band's 2000s and 2010s albums like The System Has Failed, Endgame, and Super Collider. 2016's Dystopia has more of a showing, with the inclusion of four of its better songs. The flow of this massive collection highlights Megadeth's evolution more like an anthology than a greatest-hits collection. Most interesting is the resilience the band shows throughout the decades, turning in powerful compositions more dated by the production traits of the era than any signs of Mustaine and co. mellowing. Some of these songs are indispensable staples to the metal genre, from the misanthropic sneering of '80s rippers like "Wake Up Dead" to the raging riffs and political lyrics of "Symphony of Destruction." Even as the band's catalog winds into material more fan-favored than commercially successful, the band's power and technical prowess stay full throttle. Warheads on Foreheads is too dense to be an introduction for those just getting into Megadeth, but it's a detailed and well-crafted re-tracing of the band's journey from the start.

~ Fred Thomas, All Music

***************

Track List CD1:

01. Rattlehead [3:41]
02. Mechanix [4:24]
03. Killing Is My Business… And Business Is Good! [3:06]
04. The Conjuring [5:04]
05. Wake Up Dead [3:39]
06. Devils Island [5:06]
07. Good Mourning / Black Friday [6:41]
08. Set the World Afire [5:49]
09. In My Darkest Hour [6:27]
10. Holy Wars… The Punishment Due [6:34]

Exact Audio Copy V1.3 from 2. September 2016

EAC extraction logfile from 12. November 2019, 22:13

MEGADETH / Warheads On Foreheads - CD1

Used drive : ASUS DRW-24D5MT Adapter: 1 ID: 0

Read mode : Secure
Utilize accurate stream : Yes
Defeat audio cache : Yes
Make use of C2 pointers : No

Read offset correction : 6
Overread into Lead-In and Lead-Out : No
Fill up missing offset samples with silence : Yes
Delete leading and trailing silent blocks : No
Null samples used in CRC calculations : Yes
Used interface : Native Win32 interface for Win NT & 2000

Used output format : User Defined Encoder
Selected bitrate : 768 kBit/s
Quality : High
Add ID3 tag : No
Command line compressor : C:\Program Files (x86)\Exact Audio Copy\FLAC\FLAC.EXE
Additional command line options : -6 -V -T "ARTIST=%artist%" -T "TITLE=%title%" -T "ALBUM=%albumtitle%" -T "DATE=%year%" -T "TRACKNUMBER=%tracknr%" -T "GENRE=%genre%" -T "COMMENT=%comment%" -T "BAND=%albuminterpret%" -T "ALBUMARTIST=%albuminterpret%" -T "COMPOSER=%composer%" %haslyrics%–tag-from-file=LYRICS="%lyricsfile%"%haslyrics% -T "DISCNUMBER=%cdnumber%" -T "TOTALDISCS=%totalcds%" -T "TOTALTRACKS=%numtracks%" %hascover%–picture="%coverfile%"%hascover% %source% -o %dest%


TOC of the extracted CD

Track | Start | Length | Start sector | End sector
––––––––––––––––––––––––––––-
1 | 0:00.00 | 3:40.72 | 0 | 16571
2 | 3:40.72 | 4:24.23 | 16572 | 36394
3 | 8:05.20 | 3:06.23 | 36395 | 50367
4 | 11:11.43 | 5:03.62 | 50368 | 73154
5 | 16:15.30 | 3:38.68 | 73155 | 89572
6 | 19:54.23 | 5:05.46 | 89573 | 112493
7 | 24:59.69 | 6:40.51 | 112494 | 142544
8 | 31:40.45 | 5:49.32 | 142545 | 168751
9 | 37:30.02 | 6:27.05 | 168752 | 197781
10 | 43:57.07 | 6:33.45 | 197782 | 227301


Range status and errors

Selected range

Filename E:\Música\EAC\Megadeth\MEGADETH - Warheads On Foreheads - CD1.wav

Peak level 100.0 %
Extraction speed 1.7 X
Range quality 100.0 %
Test CRC FD97B06B
Copy CRC FD97B06B
Copy OK

No errors occurred


AccurateRip summary

Track 1 accurately ripped (confidence 17) [46EDAE58] (AR v2)
Track 2 accurately ripped (confidence 17) [67583FC4] (AR v2)
Track 3 accurately ripped (confidence 18) [1E645A1B] (AR v2)
Track 4 accurately ripped (confidence 18) [3D3C0F87] (AR v2)
Track 5 accurately ripped (confidence 18) [02DC92D1] (AR v2)
Track 6 accurately ripped (confidence 18) [3FF7D167] (AR v2)
Track 7 accurately ripped (confidence 17) [97189404] (AR v2)
Track 8 accurately ripped (confidence 18) [25B6A91F] (AR v2)
Track 9 accurately ripped (confidence 18) [409EA428] (AR v2)
Track 10 accurately ripped (confidence 18) [9CEDE355] (AR v2)

All tracks accurately ripped

End of status report

–– CUETools DB Plugin V2.1.6

[CTDB TOCID: 8SMTV6iK9HSZZ8GIY5t84NRv4Y8-] found
Submit result: 8SMTV6iK9HSZZ8GIY5t84NRv4Y8- has been confirmed
Track | CTDB Status
1 | (94/96) Accurately ripped
2 | (95/96) Accurately ripped
3 | (96/96) Accurately ripped
4 | (96/96) Accurately ripped
5 | (96/96) Accurately ripped
6 | (96/96) Accurately ripped
7 | (95/96) Accurately ripped
8 | (96/96) Accurately ripped
9 | (96/96) Accurately ripped
10 | (96/96) Accurately ripped


==== Log checksum D6584EC67EE40C711BB104C5D254B4C4A670954D3D69AC78048DE68F636ACA6B ====

Track List CD2:

01. Hangar 18 [5:13]
02. Tornado of Souls [5:21]
03. Rust in Peace… Polaris [5:39]
04. Five Magics [5:41]
05. Take No Prisoners [3:28]
06. Skin o’ My Teeth [3:17]
07. Angry Again [3:49]
08. Symphony of Destruction [4:08]
09. Sweating Bullets [5:28]
10. А tout le monde [4:24]
11. Train of Consequences [3:33]
12. Reckoning Day [4:37]

Exact Audio Copy V1.3 from 2. September 2016

EAC extraction logfile from 13. November 2019, 0:02

MEGADETH / Warheads On Foreheads - CD2

Used drive : ASUS DRW-24D5MT Adapter: 1 ID: 0

Read mode : Secure
Utilize accurate stream : Yes
Defeat audio cache : Yes
Make use of C2 pointers : No

Read offset correction : 6
Overread into Lead-In and Lead-Out : No
Fill up missing offset samples with silence : Yes
Delete leading and trailing silent blocks : No
Null samples used in CRC calculations : Yes
Used interface : Native Win32 interface for Win NT & 2000

Used output format : User Defined Encoder
Selected bitrate : 768 kBit/s
Quality : High
Add ID3 tag : No
Command line compressor : C:\Program Files (x86)\Exact Audio Copy\FLAC\FLAC.EXE
Additional command line options : -6 -V -T "ARTIST=%artist%" -T "TITLE=%title%" -T "ALBUM=%albumtitle%" -T "DATE=%year%" -T "TRACKNUMBER=%tracknr%" -T "GENRE=%genre%" -T "COMMENT=%comment%" -T "BAND=%albuminterpret%" -T "ALBUMARTIST=%albuminterpret%" -T "COMPOSER=%composer%" %haslyrics%–tag-from-file=LYRICS="%lyricsfile%"%haslyrics% -T "DISCNUMBER=%cdnumber%" -T "TOTALDISCS=%totalcds%" -T "TOTALTRACKS=%numtracks%" %hascover%–picture="%coverfile%"%hascover% %source% -o %dest%


TOC of the extracted CD

Track | Start | Length | Start sector | End sector
––––––––––––––––––––––––––––-
1 | 0:00.00 | 5:12.65 | 0 | 23464
2 | 5:12.65 | 5:20.62 | 23465 | 47526
3 | 10:33.52 | 5:38.45 | 47527 | 72921
4 | 16:12.22 | 5:40.56 | 72922 | 98477
5 | 21:53.03 | 3:28.01 | 98478 | 114078
6 | 25:21.04 | 3:16.52 | 114079 | 128830
7 | 28:37.56 | 3:48.53 | 128831 | 145983
8 | 32:26.34 | 4:08.29 | 145984 | 164612
9 | 36:34.63 | 5:28.34 | 164613 | 189246
10 | 42:03.22 | 4:24.02 | 189247 | 209048
11 | 46:27.24 | 3:32.45 | 209049 | 224993
12 | 49:59.69 | 4:36.40 | 224994 | 245733


Range status and errors

Selected range

Filename E:\Música\EAC\Megadeth\MEGADETH - Warheads On Foreheads - CD2.wav

Peak level 100.0 %
Extraction speed 1.7 X
Range quality 100.0 %
Test CRC 38FE5E0D
Copy CRC 38FE5E0D
Copy OK

No errors occurred


AccurateRip summary

Track 1 accurately ripped (confidence 16) [83AC8B9B] (AR v2)
Track 2 accurately ripped (confidence 16) [74B392DF] (AR v2)
Track 3 accurately ripped (confidence 16) [4170E9A0] (AR v2)
Track 4 accurately ripped (confidence 16) [EFBCBB1F] (AR v2)
Track 5 accurately ripped (confidence 16) [4D845AD7] (AR v2)
Track 6 accurately ripped (confidence 16) [0952914B] (AR v2)
Track 7 accurately ripped (confidence 16) [CE29C1F0] (AR v2)
Track 8 accurately ripped (confidence 16) [CC5F508A] (AR v2)
Track 9 accurately ripped (confidence 16) [2228C805] (AR v2)
Track 10 accurately ripped (confidence 16) [CA0831DF] (AR v2)
Track 11 accurately ripped (confidence 16) [4D6F0197] (AR v2)
Track 12 accurately ripped (confidence 16) [923E59B2] (AR v2)

All tracks accurately ripped

End of status report

–– CUETools DB Plugin V2.1.6

[CTDB TOCID: izy6G.8MoQlLecozbXxO3bR.pjY-] found
Submit result: izy6G.8MoQlLecozbXxO3bR.pjY- has been confirmed
Track | CTDB Status
1 | (89/89) Accurately ripped
2 | (89/89) Accurately ripped
3 | (89/89) Accurately ripped
4 | (89/89) Accurately ripped
5 | (89/89) Accurately ripped
6 | (89/89) Accurately ripped
7 | (89/89) Accurately ripped
8 | (88/89) Accurately ripped
9 | (89/89) Accurately ripped
10 | (89/89) Accurately ripped
11 | (89/89) Accurately ripped
12 | (89/89) Accurately ripped


==== Log checksum 7D3F4AEC7ECC216FA4217095927C2375FEE8D471E12774E69BEF3C35EBF79A52 ====

Track List CD3:

01. Trust [5:13]
02. She-Wolf [3:39]
03. Wanderlust [5:50]
04. Dread and the Fugitive Mind [4:26]
05. Blackmail the Universe [4:34]
06. Washington Is Next! [5:20]
07. Head Crusher [3:28]
08. Public Enemy No. 1 [4:16]
09. Kingmaker [4:19]
10. The Threat Is Real [4:23]
11. Poisonous Shadows [6:04]
12. Death From Within [4:49]
13. Dystopia [5:03]

Exact Audio Copy V1.3 from 2. September 2016

EAC extraction logfile from 16. November 2019, 19:07

MEGADETH / Warheads On Foreheads - CD3

Used drive : ASUS DRW-24D5MT Adapter: 1 ID: 0

Read mode : Secure
Utilize accurate stream : Yes
Defeat audio cache : Yes
Make use of C2 pointers : No

Read offset correction : 6
Overread into Lead-In and Lead-Out : No
Fill up missing offset samples with silence : Yes
Delete leading and trailing silent blocks : No
Null samples used in CRC calculations : Yes
Used interface : Native Win32 interface for Win NT & 2000

Used output format : User Defined Encoder
Selected bitrate : 768 kBit/s
Quality : High
Add ID3 tag : No
Command line compressor : C:\Program Files (x86)\Exact Audio Copy\FLAC\FLAC.EXE
Additional command line options : -6 -V -T "ARTIST=%artist%" -T "TITLE=%title%" -T "ALBUM=%albumtitle%" -T "DATE=%year%" -T "TRACKNUMBER=%tracknr%" -T "GENRE=%genre%" -T "COMMENT=%comment%" -T "BAND=%albuminterpret%" -T "ALBUMARTIST=%albuminterpret%" -T "COMPOSER=%composer%" %haslyrics%–tag-from-file=LYRICS="%lyricsfile%"%haslyrics% -T "DISCNUMBER=%cdnumber%" -T "TOTALDISCS=%totalcds%" -T "TOTALTRACKS=%numtracks%" %hascover%–picture="%coverfile%"%hascover% %source% -o %dest%


TOC of the extracted CD

Track | Start | Length | Start sector | End sector
––––––––––––––––––––––––––––-
1 | 0:00.00 | 5:12.58 | 0 | 23457
2 | 5:12.58 | 3:39.37 | 23458 | 39919
3 | 8:52.20 | 5:49.50 | 39920 | 66144
4 | 14:41.70 | 4:26.21 | 66145 | 86115
5 | 19:08.16 | 4:34.11 | 86116 | 106676
6 | 23:42.27 | 5:20.26 | 106677 | 130702
7 | 29:02.53 | 3:27.48 | 130703 | 146275
8 | 32:30.26 | 4:16.12 | 146276 | 165487
9 | 36:46.38 | 4:18.73 | 165488 | 184910
10 | 41:05.36 | 4:22.46 | 184911 | 204606
11 | 45:28.07 | 6:03.38 | 204607 | 231869
12 | 51:31.45 | 4:48.62 | 231870 | 253531
13 | 56:20.32 | 5:02.60 | 253532 | 276241


Range status and errors

Selected range

Filename E:\Música\EAC\Megadeth\MEGADETH - Warheads On Foreheads - CD3.wav

Peak level 100.0 %
Extraction speed 7.1 X
Range quality 99.9 %
Test CRC F376CE84
Copy CRC F376CE84
Copy OK

No errors occurred


AccurateRip summary

Track 1 accurately ripped (confidence 16) [BC119BF4] (AR v2)
Track 2 accurately ripped (confidence 16) [6BEA9DCF] (AR v2)
Track 3 accurately ripped (confidence 16) [5C15B379] (AR v2)
Track 4 accurately ripped (confidence 16) [B623EACE] (AR v2)
Track 5 accurately ripped (confidence 16) [CD21521E] (AR v2)
Track 6 accurately ripped (confidence 16) [B8069AB9] (AR v2)
Track 7 accurately ripped (confidence 16) [CDC90EFD] (AR v2)
Track 8 accurately ripped (confidence 16) [ACE80B9F] (AR v2)
Track 9 accurately ripped (confidence 16) [00C79E3D] (AR v2)
Track 10 accurately ripped (confidence 16) [CBD30459] (AR v2)
Track 11 accurately ripped (confidence 16) [B7938AC1] (AR v2)
Track 12 accurately ripped (confidence 16) [66E4F8A3] (AR v2)
Track 13 accurately ripped (confidence 16) [C74A4059] (AR v2)

All tracks accurately ripped

End of status report

–– CUETools DB Plugin V2.1.6

[CTDB TOCID: 8MiBnC7hfevClUYqCFBg7H0eYmg-] found
Submit result: already submitted
Track | CTDB Status
1 | (89/89) Accurately ripped
2 | (89/89) Accurately ripped
3 | (89/89) Accurately ripped
4 | (89/89) Accurately ripped
5 | (89/89) Accurately ripped
6 | (89/89) Accurately ripped
7 | (89/89) Accurately ripped
8 | (89/89) Accurately ripped
9 | (89/89) Accurately ripped
10 | (89/89) Accurately ripped
11 | (89/89) Accurately ripped
12 | (89/89) Accurately ripped
13 | (89/89) Accurately ripped


==== Log checksum AA02895D553314C891B800F36A3689644F33304A4433E0D34CAC48EAE5661CE9 ====

Megadeth - Warheads On Foreheads (2019) {3CD Box Set, Remastered}


All thanks go to jarpomarx

>>> My Blog <<<

DOWNLOAD: