Subcategories

Memphis Slim - Very Much Alive And In Montreux (1973)

Posted By: uff
Memphis Slim - Very Much Alive And In Montreux (1973)

Memphis Slim - Very Much Alive And In Montreux (1973)
Blues | 1cd | EAC Rip | Flac + Cue + Log | covers
Universal, 983 212-4 | rem: 2006 | 275Mb

This choice chapter in the Memphis Slim story delivers an exciting taste of what a modern electric blues band sounded like in live performance during the early '70s. This reissue includes a bonus track featuring Hammond B-3 organist Deacon Jones and formidable electric guitar wizard Freddie King. (It's quite a package, although even with this extra cut the disc only contains 43 minutes of music.) The year 1973 was particularly exciting as blues, soul, funk, and rock & roll began to blend in ways that had only been hinted at during the 1960s. This cultural explosion was inevitable as music festivals were expanded to include a wide range of styles and genres. The 1973 Ann Arbor Blues and Jazz Festival, for example, featured One String Sam, Victoria Spivey, Roosevelt Sykes, John Lee Hooker, and Ray Charles on the same weekend as Yusef Lateef, Charles Mingus, Ornette Coleman, and the Sun Ra Arkestra. The 1973 jazz festival held in Montreux, Switzerland, underwent comparable dilation as Odetta, Fats Domino, Muddy Waters, and Professor Longhair appeared alongside Miles Davis, Les McCann, Sam Rivers, and Stéphane Grappelli. Memphis Slim fit perfectly into this mind-blowing lineup. Backed by bassist Benny Turner, drummer Charlie Meyers, and guitarist Joe "Jammer" Wright, Slim rises to the occasion, maintaining at all tempos a powerful presence that is still breathtaking. Most amusing is Slim's politically charged "The Watergate Festival," juxtaposing the seemingly disparate topics of a fertile international music festival scene and the corruption scandal that was steadily disembowelling the Nixon White House during the summer of 1973. This track compares nicely with similar Watergate "tributes" composed and/or recorded by Eddie Shaw, Tom T. Hall, Howlin' Wolf, Big Joe Williams, Percy Heath, Rahsaan Roland Kirk, and Gil Scott-Heron. ~Allmusic

Track listing
01. I'm Lost Without You (2:20)
02. Whish Me Well (3:38)
03. Didn't We Babe (2:23)
04. Montreux Boogie (5:00)
05. Angel Child (4:51)
06. The Watergate Festival (5:35)
07. Baby Please Come Home (1:29)
08. Everyday I Have The Blues (4:02)
09. All By Myself (2:53)
10. Bye Bye Blues (3:52)
11. Lend Me Your Love (6:47)


Exact Audio Copy V0.99 prebeta 5 from 4. May 2009

EAC extraction logfile from 24. May 2009, 13:10

Memphis Slim / Very Much Alive and In Montreux

Used drive : LITE-ON CD-RW SOHR-5238S Adapter: 5 ID: 3

Read mode : Secure
Utilize accurate stream : Yes
Defeat audio cache : Yes
Make use of C2 pointers : No

Read offset correction : 6
Overread into Lead-In and Lead-Out : No
Fill up missing offset samples with silence : Yes
Delete leading and trailing silent blocks : No
Null samples used in CRC calculations : Yes
Used interface : Installed external ASPI interface
Gap handling : Appended to previous track

Used output format : Internal WAV Routines
Sample format : 44.100 Hz; 16 Bit; Stereo


TOC of the extracted CD

Track | Start | Length | Start sector | End sector
––––––––––––––––––––––––––––-
1 | 0:00.00 | 2:20.53 | 0 | 10552
2 | 2:20.53 | 3:38.57 | 10553 | 26959
3 | 5:59.35 | 2:23.28 | 26960 | 37712
4 | 8:22.63 | 5:00.37 | 37713 | 60249
5 | 13:23.25 | 4:53.48 | 60250 | 82272
6 | 18:16.73 | 5:35.27 | 82273 | 107424
7 | 23:52.25 | 1:29.13 | 107425 | 114112
8 | 25:21.38 | 4:02.73 | 114113 | 132335
9 | 29:24.36 | 2:53.31 | 132336 | 145341
10 | 32:17.67 | 3:53.06 | 145342 | 162822
11 | 36:10.73 | 6:47.26 | 162823 | 193373


Track 1

Filename D:\EAC\Memphis Very\01 - I'm Lost Without You.wav

Pre-gap length 0:00:02.00

Peak level 83.4 %
Track quality 100.0 %
Test CRC 0CF9B56F
Copy CRC 0CF9B56F
Track not present in AccurateRip database
Copy OK

Track 2

Filename D:\EAC\Memphis Very\02 - Whish Me Well.wav

Peak level 92.7 %
Track quality 100.0 %
Test CRC 6F0E0DD4
Copy CRC 6F0E0DD4
Track not present in AccurateRip database
Copy OK

Track 3

Filename D:\EAC\Memphis Very\03 - Didn't We Babe.wav

Peak level 93.1 %
Track quality 100.0 %
Test CRC CCB22434
Copy CRC CCB22434
Track not present in AccurateRip database
Copy OK

Track 4

Filename D:\EAC\Memphis Very\04 - Montreux Boogie.wav

Peak level 88.4 %
Track quality 99.9 %
Test CRC 85425A9C
Copy CRC 85425A9C
Track not present in AccurateRip database
Copy OK

Track 5

Filename D:\EAC\Memphis Very\05 - Angel Child.wav

Peak level 90.3 %
Track quality 100.0 %
Test CRC AEE901A2
Copy CRC AEE901A2
Track not present in AccurateRip database
Copy OK

Track 6

Filename D:\EAC\Memphis Very\06 - The Watergate Festival.wav

Pre-gap length 0:00:02.00

Peak level 95.1 %
Track quality 99.9 %
Test CRC B60F84BB
Copy CRC B60F84BB
Track not present in AccurateRip database
Copy OK

Track 7

Filename D:\EAC\Memphis Very\07 - Baby Please Come Home.wav

Peak level 89.3 %
Track quality 100.0 %
Test CRC ED7B297D
Copy CRC ED7B297D
Track not present in AccurateRip database
Copy OK

Track 8

Filename D:\EAC\Memphis Very\08 - Everyday I Have The Blues.wav

Peak level 92.5 %
Track quality 100.0 %
Test CRC 5182EE5E
Copy CRC 5182EE5E
Track not present in AccurateRip database
Copy OK

Track 9

Filename D:\EAC\Memphis Very\09 - All By Myself.wav

Peak level 92.5 %
Track quality 100.0 %
Test CRC 99C0BB88
Copy CRC 99C0BB88
Track not present in AccurateRip database
Copy OK

Track 10

Filename D:\EAC\Memphis Very\10 - Bye Bye Blues.wav

Peak level 94.9 %
Track quality 99.9 %
Test CRC D1ECD289
Copy CRC D1ECD289
Track not present in AccurateRip database
Copy OK

Track 11

Filename D:\EAC\Memphis Very\11 - Lend Me Your Love.wav

Pre-gap length 0:00:01.00

Peak level 95.9 %
Track quality 100.0 %
Test CRC 60AF3612
Copy CRC 60AF3612
Track not present in AccurateRip database
Copy OK


None of the tracks are present in the AccurateRip database

No errors occurred

End of status report



[CUETools log; Date: 2016. 10. 04. 20:46:13; Version: 2.1.6]
[CTDB TOCID: vYILLWfxJz1h0A551zW__2JAwrA-] found.
Track | CTDB Status
1 | (1/1) Accurately ripped
2 | (1/1) Accurately ripped
3 | (1/1) Accurately ripped
4 | (1/1) Accurately ripped
5 | (1/1) Accurately ripped
6 | (1/1) Accurately ripped
7 | (1/1) Accurately ripped
8 | (1/1) Accurately ripped
9 | (1/1) Accurately ripped
10 | (1/1) Accurately ripped
11 | (1/1) Accurately ripped
[AccurateRip ID: 0010600a-00907aaf-880a120b] found.
Track [ CRC | V2 ] Status
01 [f7e0f30d|819e46a1] (2+0/2) Accurately ripped
02 [405e0e1e|d25397f7] (2+0/2) Accurately ripped
03 [5865b259|a248ec59] (2+0/2) Accurately ripped
04 [25ea8749|341622e1] (2+0/2) Accurately ripped
05 [63f06780|f90984c9] (2+0/2) Accurately ripped
06 [0fb3473b|e204d845] (2+0/2) Accurately ripped
07 [e79ff38f|928ff470] (2+0/2) Accurately ripped
08 [62c1afd1|ba052742] (2+0/2) Accurately ripped
09 [28f5eec5|9719bd20] (2+0/2) Accurately ripped
10 [6fec5bfd|ca414030] (2+0/2) Accurately ripped
11 [9213056e|5ced60c6] (2+0/2) Accurately ripped

Track Peak [ CRC32 ] [W/O NULL] [ LOG ]
– 95,9 [683953E3] [44331907]
01 83,4 [0CF9B56F] [61A783E4] CRC32
02 92,7 [6F0E0DD4] [73C1224F] CRC32
03 93,1 [CCB22434] [071AA5AC] CRC32
04 88,4 [85425A9C] [C0F3FC73] CRC32
05 90,3 [AEE901A2] [FC161F58] CRC32
06 95,1 [B60F84BB] [DA56D8BA] CRC32
07 89,3 [ED7B297D] [C0628846] CRC32
08 92,5 [5182EE5E] [4E462C69] CRC32
09 92,5 [99C0BB88] [1B62F964] CRC32
10 94,9 [D1ECD289] [87B1F473] CRC32
11 95,9 [60AF3612] [EFA05539] CRC32


Thx to garet jax
Bigfile
Depositfiles

password: asd