Subcategories

Metallica - Live At Grimey's (2010)

Posted By: v3122
Metallica - Live At Grimey's (2010)

Metallica - Live At Grimey's (2010)
EAC | Flac(Image) + Cue + Log & MP3 CBR 320Kbps
2010 | Warner Bros., 526267-2 | ~ 426 or 139 Mb | Scans(jpg) -> 16 Mb
Thrash Metal

Live at Grimey's is a live album by the American heavy metal band Metallica. The album was recorded live on June 12, 2008, at The Basement, a venue beneath Grimey's New & Preloved Music in Nashville, Tennessee, just before their appearance at the Bonnaroo Music Festival. It was released on November 26, 2010. It was released on both CD and vinyl, and is available at independent record stores, as well as the band's website. In its first week after release, the EP sold around 3,000 copies.

As opposed to all of Metallica releases from Death Magnetic onwards, Live at Grimey's is its first release since the band's live album S&M (1999) to use the original Metallica logo rather than the more slanted one used for Death Magnetic.

~ wiki
Metallica - Live At Grimey's (2010):

Metallica - Live At Grimey's (2010)

Tracklist:

01. No Remorse [04:55]
02. Fuel [04:29]
03. Harvester Of Sorrow [06:19]
04. Welcome Home (Sanitarium) [07:30]
05. For Whom The Bell Tolls (Incl. The Frayed Ends Of Sanity 'Jam') [09:53]
06. Master Of Puppets [08:46]
07. Sad But True [05:52]
08. Motorbreath [03:14]
09. Seek And Destroy [07:52]

Exact Audio Copy V1.1 from 23. June 2015

EAC extraction logfile from 9. January 2016, 17:06

METALLICA / Live At Grimey's (US, 526267-2)

Used drive : ASUS DRW-24B3ST Adapter: 1 ID: 1

Read mode : Secure
Utilize accurate stream : Yes
Defeat audio cache : Yes
Make use of C2 pointers : No

Read offset correction : 6
Overread into Lead-In and Lead-Out : No
Fill up missing offset samples with silence : Yes
Delete leading and trailing silent blocks : No
Null samples used in CRC calculations : Yes
Used interface : Native Win32 interface for Win NT & 2000

Used output format : User Defined Encoder
Selected bitrate : 1024 kBit/s
Quality : High
Add ID3 tag : No
Command line compressor : C:\Program Files\EAC(v.1.1)\WV\wavpack.exe
Additional command line options : -h -hh -m %source%


TOC of the extracted CD

Track | Start | Length | Start sector | End sector
––––––––––––––––––––––––––––-
1 | 0:00.15 | 4:54.56 | 15 | 22120
2 | 4:54.71 | 4:28.60 | 22121 | 42280
3 | 9:23.56 | 6:18.25 | 42281 | 70655
4 | 15:42.06 | 7:29.56 | 70656 | 104386
5 | 23:11.62 | 9:52.67 | 104387 | 148853
6 | 33:04.54 | 8:45.39 | 148854 | 188267
7 | 41:50.18 | 5:51.72 | 188268 | 214664
8 | 47:42.15 | 3:13.19 | 214665 | 229158
9 | 50:55.34 | 7:51.06 | 229159 | 264489


Range status and errors

Selected range

Filename F:\METALLICA - Live At Grimey's (US 2010 Warner Bros. Records Inc. • 526267-2)\METALLICA - Live At Grimey's (US, 526267-2).wav

Peak level 100.0 %
Extraction speed 7.7 X
Range quality 100.0 %
Test CRC CF94DD93
Copy CRC CF94DD93
Copy OK

No errors occurred


AccurateRip summary

Track 1 accurately ripped (confidence 18) [0B4CD480] (AR v2)
Track 2 accurately ripped (confidence 18) [406549EF] (AR v2)
Track 3 accurately ripped (confidence 18) [DB312A32] (AR v2)
Track 4 accurately ripped (confidence 18) [9437D81B] (AR v2)
Track 5 accurately ripped (confidence 18) [62F77821] (AR v2)
Track 6 accurately ripped (confidence 18) [41D673E4] (AR v2)
Track 7 accurately ripped (confidence 18) [B47670FA] (AR v2)
Track 8 accurately ripped (confidence 18) [340B16D9] (AR v2)
Track 9 accurately ripped (confidence 18) [B5D214D1] (AR v2)

All tracks accurately ripped

End of status report

==== Log checksum 928CCEF540096E5887B0E138ABC869C76C4F779725D73F6E33E9DFCA8F0915AE ====

foobar2000 1.2.9 / Dynamic Range Meter 1.1.1
log date: 2017-03-25 21:05:41

––––––––––––––––––––––––––––––––––––––––
Analyzed: METALLICA / Live At Grimey's (US, 526267-2)
––––––––––––––––––––––––––––––––––––––––

DR Peak RMS Duration Track
––––––––––––––––––––––––––––––––––––––––
DR6 0.00 dB -7.16 dB 4:55 01-No Remorse
DR5 0.00 dB -6.89 dB 4:29 02-Fuel
DR6 0.00 dB -7.16 dB 6:18 03-Harvester Of Sorrow
DR6 0.00 dB -8.02 dB 7:30 04-Welcome Home (Sanitarium)
DR6 0.00 dB -8.34 dB 9:53 05-For Whom The Bell Tolls (Incl. The Frayed Ends Of Sanity 'Jam')
DR6 0.00 dB -7.00 dB 8:46 06-Master Of Puppets
DR6 0.00 dB -7.48 dB 5:52 07-Sad But True
DR6 0.00 dB -7.48 dB 3:13 08-Motorbreath
DR6 0.00 dB -7.44 dB 7:51 09-Seek And Destroy
––––––––––––––––––––––––––––––––––––––––

Number of tracks: 9
Official DR value: DR6

Samplerate: 44100 Hz
Channels: 2
Bits per sample: 16
Bitrate: 983 kbps
Codec: FLAC

[CUETools log; Date: 25.03.2017 21:05:30; Version: 2.1.4]
Pregap length 00:00:15.
[CTDB TOCID: G45SBWkPvNXE0862diEr2Yj4JMw-] found.
Track | CTDB Status
1 | (19/19) Accurately ripped
2 | (19/19) Accurately ripped
3 | (19/19) Accurately ripped
4 | (19/19) Accurately ripped
5 | (19/19) Accurately ripped
6 | (19/19) Accurately ripped
7 | (19/19) Accurately ripped
8 | (19/19) Accurately ripped
9 | (19/19) Accurately ripped
[AccurateRip ID: 00139b20-0092a82e-890dc609] found.
Track [ CRC | V2 ] Status
01 [23cafe90|0b4cd480] (11+21/32) Accurately ripped
02 [8269d619|406549ef] (11+21/32) Accurately ripped
03 [e4522308|db312a32] (11+21/32) Accurately ripped
04 [a8708329|9437d81b] (11+21/32) Accurately ripped
05 [2a7734d9|62f77821] (11+21/32) Accurately ripped
06 [abdc1588|41d673e4] (11+21/32) Accurately ripped
07 [711522e3|b47670fa] (11+21/32) Accurately ripped
08 [6d46bf28|340b16d9] (11+21/32) Accurately ripped
09 [abc970ce|b5d214d1] (11+21/32) Accurately ripped

Track Peak [ CRC32 ] [W/O NULL] [ LOG ]
– 100,0 [CF94DD93] [1522AF14] CRC32
01 100,0 [E823EF1E] [B246298E]
02 100,0 [B25133AE] [2820020C]
03 100,0 [45C3A7E3] [321575DE]
04 100,0 [9DCC0B79] [23C757D2]
05 100,0 [526E822C] [40E5FA8F]
06 100,0 [D33FEB20] [0764D585]
07 100,0 [23FEDA0D] [1F827190]
08 100,0 [DFA6C3BF] [C0370F30]
09 100,0 [6E7AA368] [1A0C758C]

Metallica - Live At Grimey's (2010)

All thanks go to the original releaser

Metallica in my Blog

Download Metallica - Live At Grimey's (2010):