Subcategories

Metallica: Singles Collection part 06 (1998 - 2000)

Posted By: v3122
Metallica: Singles Collection part 06 (1998 - 2000)

Metallica: Singles Collection part 01 (1984 - 1989)
EAC | Flac(Image) + Cue + Log & MP3 CBR 320Kbps
17CD | Label: Various | ~ 1059 or 460 Mb | Artwork(jpg) -> 124 Mb
Thrash Metal

Metallica formed in 1981 by vocalist/guitarist James Hetfield and drummer Lars Ulrich. The duo first met through an ad in a Los Angeles-based music newspaper. At the time, Ulrich had little musical experience and no band but managed to secure a slot on an upcoming compilation record called “Metal Massacre”. Metallica’s contribution, “Hit The Lights”, featured Hetfield, Ulrich and lead guitarist Lloyd Grant. Afterwards, Ron McGovney became the band's bassist and Dave Mustaine joined the band as lead guitarist. This line-up would re-record "Hit The Lights" for subsequent re-pressings of "Metal Massacre" and would also issue several demos. In 1983, McGovney quit the group and was replaced by Cliff Burton, which also saw the band relocate to San Francisco. Metallica then traveled to New York after signing a deal with Megaforce Records. However, once in New York, the band fired Mustaine. It would mark the beginning of a long feud between Mustaine and Metallica, mostly fueled by remarks Mustaine would make to the press. Mustaine was replaced by Kirk Hammett of Exodus.

Metallica's debut LP, "Kill 'Em All", was released in 1983. It was followed in 1984 by "Ride The Lightning". This led to a major label deal with Elektra. In 1986, the band released "Master Of Puppets", which is considered by many to be one of the greatest heavy metal records of all time. In September of that year, while on tour in Sweden, the band was involved in a bus accident which took the life of Cliff Burton. Eventually, Jason Newsted (of Flotsam And Jetsam) was hired as the band's new bassist and he made his debut on 1987's "Garage Days Re-Revisited", an EP of cover tunes. The full-length "…And Justice For All" followed in 1988, featuring the track "One" which was chosen as the subject for their first promotional music video.

In 1990, Metallica hooked up with producer Bob Rock for a self-titled release that would become better known as "The Black Album", due to its cover art. Released in 1991, the black album would become one of the best-selling rock albums of all time, selling over 16 million copies in the US alone.

In 1996, the band experimented with Rock music style Alternative Rock, this could be heard on the album "Load". The following year, "Reload" appeared which had the similiar formula as ''Load''. The albums continued the band’s trend of more accessible music. In 1999, the group released an album and accompanying film called "S&M", which featured Metallica performing their songs with the San Francisco Symphony Orchestra.

In 2001, as the band was preparing to begin work on a new album, Newsted quit the group, citing personal and musical reasons. Work on the new album was further complicated when Hetfield entered rehab for alcohol abuse. The album, called "St. Anger", was eventually completed in 2003 with producer Bob Rock handling the bass. Upon its release, "St. Anger" drew mostly negative reviews. Following the recording, Robert Trujillo, formerly of Suicidal Tendencies, was hired as bassist. The making of the album was captured in the documentary “Some Kind Of Monster”.

In 2008, "Death Magnetic", produced by Rick Rubin, would surface and was hailed by many as Metallica's return to thrash metal. The following year, Metallica was inducted into Rock And Roll Hall of Fame. Former bassist Jason Newsted was present and Cliff Burton's father appeared on Cliff's behalf. Dave Mustaine, who was not inducted, was invited to the ceremony by the band but declined to attend. In 2011, Metallica collaborated with Lou Reed on the album, “Lulu”, which was largely panned by critics and ignored by consumers.

~ discogs
Metallica: Singles Collection part 06 (1998 - 2000)

Metallica: Singles Collection part 01 (1984 - 1989):


Tracklist CD1 - 1998 - Turn The Page (Elektra PRCD 1226-2):

01. Turn The Page (Edit) (5:11)
02. Turn The Page (Album Version) (6:07)

Exact Audio Copy V0.99 prebeta 4 from 23. January 2008

EAC extraction logfile from 18. May 2011, 20:37

Metallica / Turn The Page (Elektra PRCD 1226-2)

Used drive : PLEXTOR DVDR PX-760A Adapter: 0 ID: 0

Read mode : Secure
Utilize accurate stream : Yes
Defeat audio cache : Yes
Make use of C2 pointers : No

Read offset correction : 30
Overread into Lead-In and Lead-Out : No
Fill up missing offset samples with silence : Yes
Delete leading and trailing silent blocks : No
Null samples used in CRC calculations : Yes
Used interface : Installed external ASPI interface

Used output format : Internal WAV Routines
Sample format : 44.100 Hz; 16 Bit; Stereo


TOC of the extracted CD

Track | Start | Length | Start sector | End sector
––––––––––––––––––––––––––––-
1 | 0:00.32 | 5:10.45 | 32 | 23326
2 | 5:11.02 | 6:06.65 | 23327 | 50841


Range status and errors

Selected range

Filename D:\bki71\Metallica - Turn The Page (Elektra PRCD 1226-2).wav

Peak level 100.0 %
Range quality 100.0 %
Test CRC 7E795178
Copy CRC 7E795178
Copy OK

No errors occurred


AccurateRip summary

Track 1 not present in database
Track 2 not present in database

None of the tracks are present in the AccurateRip database

End of status report


Tracklist CD2 - 1998 - Turn The Page (Vertigo METCJ 18):

01. Turn The Page (Single Edit) (4:12)
02. Turn The Page (6:07)

Exact Audio Copy V0.99 prebeta 4 from 23. January 2008

EAC extraction logfile from 19. May 2011, 0:20

Metallica / Turn The Page (Vertigo METCJ 18)

Used drive : PLEXTOR DVDR PX-760A Adapter: 0 ID: 0

Read mode : Secure
Utilize accurate stream : Yes
Defeat audio cache : Yes
Make use of C2 pointers : No

Read offset correction : 30
Overread into Lead-In and Lead-Out : No
Fill up missing offset samples with silence : Yes
Delete leading and trailing silent blocks : No
Null samples used in CRC calculations : Yes
Used interface : Installed external ASPI interface

Used output format : Internal WAV Routines
Sample format : 44.100 Hz; 16 Bit; Stereo


TOC of the extracted CD

Track | Start | Length | Start sector | End sector
––––––––––––––––––––––––––––-
1 | 0:00.32 | 4:11.53 | 32 | 18909
2 | 4:12.10 | 6:06.72 | 18910 | 46431


Range status and errors

Selected range

Filename D:\bki71\Metallica - Turn The Page (Vertigo METCJ 18).wav

Peak level 100.0 %
Range quality 100.0 %
Test CRC 0062101B
Copy CRC 0062101B
Copy OK

No errors occurred


AccurateRip summary

Track 1 not present in database
Track 2 not present in database

None of the tracks are present in the AccurateRip database

End of status report


Tracklist CD3 - Turn The Page (Germany Vertigo 566 590-2):

01. Turn The Page (6:09)
02. Damage Inc. (Live) (4:54)

Exact Audio Copy V0.99 prebeta 5 from 4. May 2009

EAC extraction logfile from 28. October 2011, 9:51

Metallica / Turn The Page (Germany Vertigo 566 590-2)

Used drive : PLEXTOR DVDR PX-760A Adapter: 0 ID: 0

Read mode : Secure
Utilize accurate stream : Yes
Defeat audio cache : Yes
Make use of C2 pointers : No

Read offset correction : 30
Overread into Lead-In and Lead-Out : No
Fill up missing offset samples with silence : Yes
Delete leading and trailing silent blocks : No
Null samples used in CRC calculations : Yes
Used interface : Native Win32 interface for Win NT & 2000

Used output format : User Defined Encoder
Selected bitrate : 1024 kBit/s
Quality : High
Add ID3 tag : No
Command line compressor : C:\Program Files (x86)\Exact Audio Copy\Flac\flac.exe
Additional command line options : -8 -V %s


TOC of the extracted CD

Track | Start | Length | Start sector | End sector
––––––––––––––––––––––––––––-
1 | 0:00.00 | 6:09.05 | 0 | 27679
2 | 6:09.05 | 4:53.57 | 27680 | 49711


Range status and errors

Selected range

Filename D:\bki71\Metallica\Metallica - Turn The Page (Germany Vertigo 566 590-2).wav

Peak level 97.7 %
Range quality 99.9 %
Test CRC B4303D93
Copy CRC B4303D93
Copy OK

No errors occurred


AccurateRip summary

Track 1 not present in database
Track 2 not present in database

None of the tracks are present in the AccurateRip database

End of status report


Tracklist CD4 - 1998 - Turn The Page (Australia Vertigo 566 591-2):

01. Turn The Page (6:08)
02. Bleeding Me (Live) (8:30)
03. Stone Cold Crazy (Live) (3:30)
04. The Wait (Live) (4:43)

Exact Audio Copy V0.99 prebeta 5 from 4. May 2009

EAC extraction logfile from 27. October 2011, 15:34

Metallica / Turn The Page (Australia Vertigo 566 591-2)

Used drive : PIONEER DVD-RW DVR-215 Adapter: 5 ID: 0

Read mode : Secure
Utilize accurate stream : Yes
Defeat audio cache : Yes
Make use of C2 pointers : No

Read offset correction : 48
Overread into Lead-In and Lead-Out : No
Fill up missing offset samples with silence : Yes
Delete leading and trailing silent blocks : No
Null samples used in CRC calculations : Yes
Used interface : Native Win32 interface for Win NT & 2000

Used output format : User Defined Encoder
Selected bitrate : 1024 kBit/s
Quality : High
Add ID3 tag : No
Command line compressor : C:\Program Files (x86)\Exact Audio Copy\Flac\flac.exe
Additional command line options : -8 -V %s


TOC of the extracted CD

Track | Start | Length | Start sector | End sector
––––––––––––––––––––––––––––-
1 | 0:00.00 | 6:07.50 | 0 | 27574
2 | 6:07.50 | 8:30.31 | 27575 | 65855
3 | 14:38.06 | 3:29.69 | 65856 | 81599
4 | 18:08.00 | 4:43.34 | 81600 | 102858


Range status and errors

Selected range

Filename D:\bki71\Metallica\Metallica - Turn The Page (Australia Vertigo 566 591-2).wav

Peak level 97.7 %
Range quality 99.9 %
Test CRC F019AE9A
Copy CRC F019AE9A
Copy OK

No errors occurred


AccurateRip summary

Track 1 accurately ripped (confidence 4) [F159E159]
Track 2 accurately ripped (confidence 4) [719C4C76]
Track 3 accurately ripped (confidence 4) [15364051]
Track 4 accurately ripped (confidence 4) [E6CE0B02]

All tracks accurately ripped

End of status report


Tracklist CD5 - Turn The Page (Australia Vertigo 566 593-2):

01. Turn The Page (6:11)
02. Damage Inc. (Live) (4:57)
03. Fuel (4:29)

Exact Audio Copy V0.99 prebeta 5 from 4. May 2009

EAC extraction logfile from 28. October 2011, 9:25

Metallica / Turn The Page (Australia Vertigo 566 593-2)

Used drive : PLEXTOR DVDR PX-760A Adapter: 0 ID: 0

Read mode : Secure
Utilize accurate stream : Yes
Defeat audio cache : Yes
Make use of C2 pointers : No

Read offset correction : 30
Overread into Lead-In and Lead-Out : No
Fill up missing offset samples with silence : Yes
Delete leading and trailing silent blocks : No
Null samples used in CRC calculations : Yes
Used interface : Native Win32 interface for Win NT & 2000

Used output format : User Defined Encoder
Selected bitrate : 1024 kBit/s
Quality : High
Add ID3 tag : No
Command line compressor : C:\Program Files (x86)\Exact Audio Copy\Flac\flac.exe
Additional command line options : -8 -V %s


TOC of the extracted CD

Track | Start | Length | Start sector | End sector
––––––––––––––––––––––––––––-
1 | 0:00.00 | 6:11.09 | 0 | 27833
2 | 6:11.09 | 4:57.15 | 27834 | 50123
3 | 11:08.24 | 4:29.02 | 50124 | 70300
4 | 18:09.26 | 8:48.64 | 81701 | 121364


Range status and errors

Selected range

Filename D:\bki71\Metallica\Metallica - Turn The Page (Australia Vertigo 566 593-2).wav

Peak level 100.0 %
Range quality 100.0 %
Test CRC C176C95D
Copy CRC C176C95D
Copy OK

No errors occurred


AccurateRip summary

Track 1 accurately ripped (confidence 4) [2998041A]
Track 2 accurately ripped (confidence 5) [F4A4B78E]
Track 3 accurately ripped (confidence 4) [F7477FFF]

All tracks accurately ripped

End of status report


Tracklist CD6 - 1998 - Whiskey In The Jar (Vertigo METCJ 19):

01. Whiskey In The Jar (Edit) (4:36)
02. Whiskey In The Jar (Album Version) (5:04)

Exact Audio Copy V0.99 prebeta 4 from 23. January 2008

EAC extraction logfile from 19. May 2011, 0:44

Metallica / Whiskey In The Jar (Vertigo METCJ 19)

Used drive : PLEXTOR DVDR PX-760A Adapter: 0 ID: 0

Read mode : Secure
Utilize accurate stream : Yes
Defeat audio cache : Yes
Make use of C2 pointers : No

Read offset correction : 30
Overread into Lead-In and Lead-Out : No
Fill up missing offset samples with silence : Yes
Delete leading and trailing silent blocks : No
Null samples used in CRC calculations : Yes
Used interface : Installed external ASPI interface

Used output format : Internal WAV Routines
Sample format : 44.100 Hz; 16 Bit; Stereo


TOC of the extracted CD

Track | Start | Length | Start sector | End sector
––––––––––––––––––––––––––––-
1 | 0:00.00 | 4:36.27 | 0 | 20726
2 | 4:36.27 | 5:04.20 | 20727 | 43546


Range status and errors

Selected range

Filename D:\bki71\Metallica - Whiskey In The Jar (Vertigo METCJ 19).wav

Peak level 98.8 %
Range quality 100.0 %
Test CRC 96F37637
Copy CRC 96F37637
Copy OK

No errors occurred


AccurateRip summary

Track 1 not present in database
Track 2 not present in database

None of the tracks are present in the AccurateRip database

End of status report


Tracklist CD7 - 1999 - Die, Die My Darling (Elektra PRCD 1321):

01. Die, Die My Darling (Album Version) (2:27)

Exact Audio Copy V0.99 prebeta 5 from 4. May 2009

EAC extraction logfile from 27. October 2011, 14:27

Metallica / Die, Die My Darling (USA Promo CD, Elektra PRCD 1321-2)

Used drive : PLEXTOR DVDR PX-760A Adapter: 0 ID: 0

Read mode : Secure
Utilize accurate stream : Yes
Defeat audio cache : Yes
Make use of C2 pointers : No

Read offset correction : 30
Overread into Lead-In and Lead-Out : No
Fill up missing offset samples with silence : Yes
Delete leading and trailing silent blocks : No
Null samples used in CRC calculations : Yes
Used interface : Native Win32 interface for Win NT & 2000

Used output format : User Defined Encoder
Selected bitrate : 1024 kBit/s
Quality : High
Add ID3 tag : No
Command line compressor : C:\Program Files (x86)\Exact Audio Copy\Flac\flac.exe
Additional command line options : -8 -V %s


TOC of the extracted CD

Track | Start | Length | Start sector | End sector
––––––––––––––––––––––––––––-
1 | 0:00.32 | 2:27.13 | 32 | 11069


Range status and errors

Selected range

Filename D:\bki71\Metallica\Metallica - Die, Die My Darling (USA Promo CD, Elektra PRCD 1321-2).wav

Peak level 100.0 %
Range quality 100.0 %
Test CRC A3139D99
Copy CRC A3139D99
Copy OK

No errors occurred


AccurateRip summary

Track 1 not present in database

None of the tracks are present in the AccurateRip database

End of status report


Tracklist CD8 - 1999 - Die, Die My Darling ( Vertigo METCJ 20):

01. Die, Die My Darling (2:28)

Exact Audio Copy V0.99 prebeta 5 from 4. May 2009

EAC extraction logfile from 27. October 2011, 14:20

Metallica / Die, Die My Darling (UK Promo CD, Vertigo METCJ 20)

Used drive : PLEXTOR DVDR PX-760A Adapter: 0 ID: 0

Read mode : Secure
Utilize accurate stream : Yes
Defeat audio cache : Yes
Make use of C2 pointers : No

Read offset correction : 30
Overread into Lead-In and Lead-Out : No
Fill up missing offset samples with silence : Yes
Delete leading and trailing silent blocks : No
Null samples used in CRC calculations : Yes
Used interface : Native Win32 interface for Win NT & 2000

Used output format : User Defined Encoder
Selected bitrate : 1024 kBit/s
Quality : High
Add ID3 tag : No
Command line compressor : C:\Program Files (x86)\Exact Audio Copy\Flac\flac.exe
Additional command line options : -8 -V %s


TOC of the extracted CD

Track | Start | Length | Start sector | End sector
––––––––––––––––––––––––––––-
1 | 0:00.00 | 2:27.47 | 0 | 11071


Range status and errors

Selected range

Filename D:\bki71\Metallica\Metallica - Die, Die My Darling (UK Promo CD, Vertigo METCJ 20).wav

Peak level 100.0 %
Range quality 100.0 %
Test CRC 104C0B7C
Copy CRC 104C0B7C
Copy OK

No errors occurred


AccurateRip summary

Track 1 cannot be verified as accurate (confidence 1) [971B075C], AccurateRip returned [26573900]

No tracks could be verified as accurate
You may have a different pressing from the one(s) in the database

End of status report


Tracklist CD9 - 1999 - Die, Die My Darling (EU Vertigo 562 153-2):

01. Die, Die My Darling (2:30)
02. Sabbra Cadabra (Live) (7:05)
03. Mercyful Fate (Live) (11:51)

Exact Audio Copy V0.99 prebeta 5 from 4. May 2009

EAC extraction logfile from 27. October 2011, 14:46

Metallica / Die, Die My Darling (EU Vertigo 562 153-2)

Used drive : PIONEER DVD-RW DVR-215 Adapter: 5 ID: 0

Read mode : Secure
Utilize accurate stream : Yes
Defeat audio cache : Yes
Make use of C2 pointers : No

Read offset correction : 48
Overread into Lead-In and Lead-Out : No
Fill up missing offset samples with silence : Yes
Delete leading and trailing silent blocks : No
Null samples used in CRC calculations : Yes
Used interface : Native Win32 interface for Win NT & 2000

Used output format : User Defined Encoder
Selected bitrate : 1024 kBit/s
Quality : High
Add ID3 tag : No
Command line compressor : C:\Program Files (x86)\Exact Audio Copy\Flac\flac.exe
Additional command line options : -8 -V %s


TOC of the extracted CD

Track | Start | Length | Start sector | End sector
––––––––––––––––––––––––––––-
1 | 0:00.00 | 2:29.57 | 0 | 11231
2 | 2:29.57 | 7:04.70 | 11232 | 43101
3 | 9:34.52 | 11:50.48 | 43102 | 96399


Range status and errors

Selected range

Filename D:\bki71\Metallica\Metallica - Die, Die My Darling (EU Vertigo 562 153-2).wav

Peak level 100.0 %
Range quality 100.0 %
Test CRC 588AF4CE
Copy CRC 588AF4CE
Copy OK

No errors occurred


AccurateRip summary

Track 1 accurately ripped (confidence 11) [12E5BA4C]
Track 2 accurately ripped (confidence 14) [9AC8BEA3]
Track 3 accurately ripped (confidence 14) [A7C3854F]

All tracks accurately ripped

End of status report


Tracklist CD10 - 1999 - S & M Sampler (USA PRCD 1429-2):

01. Fuel (4:52)
02. For Whom The Bell Tolls (4:54)
03. One (7:55)
04. Hero Of The Day (4:46)
05. Bleeding Me (8:58)

Exact Audio Copy V0.99 prebeta 5 from 4. May 2009

EAC extraction logfile from 28. October 2011, 10:37

Metallica / S & M Sampler (USA PRCD 1429-2)

Used drive : PLEXTOR DVDR PX-760A Adapter: 0 ID: 0

Read mode : Secure
Utilize accurate stream : Yes
Defeat audio cache : Yes
Make use of C2 pointers : No

Read offset correction : 30
Overread into Lead-In and Lead-Out : No
Fill up missing offset samples with silence : Yes
Delete leading and trailing silent blocks : No
Null samples used in CRC calculations : Yes
Used interface : Native Win32 interface for Win NT & 2000

Used output format : User Defined Encoder
Selected bitrate : 1024 kBit/s
Quality : High
Add ID3 tag : No
Command line compressor : C:\Program Files (x86)\Exact Audio Copy\Flac\flac.exe
Additional command line options : -8 -V %s


TOC of the extracted CD

Track | Start | Length | Start sector | End sector
––––––––––––––––––––––––––––-
1 | 0:00.32 | 4:52.03 | 32 | 21934
2 | 4:52.35 | 4:53.67 | 21935 | 43976
3 | 9:46.27 | 7:54.70 | 43977 | 79596
4 | 17:41.22 | 4:46.18 | 79597 | 101064
5 | 22:27.40 | 8:58.05 | 101065 | 141419


Range status and errors

Selected range

Filename D:\bki71\Metallica\Metallica - S & M Sampler (USA PRCD 1429-2).wav

Peak level 100.0 %
Range quality 100.0 %
Test CRC 3CC71B3D
Copy CRC 3CC71B3D
Copy OK

No errors occurred


AccurateRip summary

Track 1 not present in database
Track 2 not present in database
Track 3 not present in database
Track 4 not present in database
Track 5 not present in database

None of the tracks are present in the AccurateRip database

End of status report


Tracklist CD11 - 1999 - Nothing Else Matters (UK Promo CD, Vertigo MNEMP 1:

01. Nothing Else Matters (6:26)

Exact Audio Copy V0.99 prebeta 5 from 4. May 2009

EAC extraction logfile from 28. October 2011, 18:20

Metallica / Nothing Else Matters (UK Promo CD, Vertigo MNEMP 1)

Used drive : PIONEER DVD-RW DVR-215 Adapter: 5 ID: 0

Read mode : Secure
Utilize accurate stream : Yes
Defeat audio cache : Yes
Make use of C2 pointers : No

Read offset correction : 48
Overread into Lead-In and Lead-Out : No
Fill up missing offset samples with silence : Yes
Delete leading and trailing silent blocks : No
Null samples used in CRC calculations : Yes
Used interface : Native Win32 interface for Win NT & 2000

Used output format : User Defined Encoder
Selected bitrate : 1024 kBit/s
Quality : High
Add ID3 tag : No
Command line compressor : C:\Program Files (x86)\Exact Audio Copy\Flac\flac.exe
Additional command line options : -8 -V %s


TOC of the extracted CD

Track | Start | Length | Start sector | End sector
––––––––––––––––––––––––––––-
1 | 0:00.00 | 6:26.22 | 0 | 28971


Range status and errors

Selected range

Filename D:\bki71\Metallica\Metallica - Nothing Else Matters (UK Promo CD, Vertigo MNEMP 1).wav

Peak level 99.9 %
Range quality 100.0 %
Test CRC EA44F994
Copy CRC EA44F994
Copy OK

No errors occurred


AccurateRip summary

Track 1 not present in database

None of the tracks are present in the AccurateRip database

End of status report


Tracklist CD12 - 1999 - Nothing Else Matters (Germany Vertigo 562 573-2):

01. Nothing Else Matters (6:53)
02. Human (4:19)

Exact Audio Copy V0.99 prebeta 5 from 4. May 2009

EAC extraction logfile from 28. October 2011, 17:44

Metallica / Nothing Else Matters (Germany Vertigo 562 573-2)

Used drive : PLEXTOR DVDR PX-760A Adapter: 0 ID: 0

Read mode : Secure
Utilize accurate stream : Yes
Defeat audio cache : Yes
Make use of C2 pointers : No

Read offset correction : 30
Overread into Lead-In and Lead-Out : No
Fill up missing offset samples with silence : Yes
Delete leading and trailing silent blocks : No
Null samples used in CRC calculations : Yes
Used interface : Native Win32 interface for Win NT & 2000

Used output format : User Defined Encoder
Selected bitrate : 1024 kBit/s
Quality : High
Add ID3 tag : No
Command line compressor : C:\Program Files (x86)\Exact Audio Copy\Flac\flac.exe
Additional command line options : -8 -V %s


TOC of the extracted CD

Track | Start | Length | Start sector | End sector
––––––––––––––––––––––––––––-
1 | 0:00.00 | 6:53.02 | 0 | 30976
2 | 6:53.02 | 4:19.08 | 30977 | 50409


Range status and errors

Selected range

Filename D:\bki71\Metallica\Metallica - Nothing Else Matters (Germany Vertigo 562 573-2).wav

Peak level 100.0 %
Range quality 100.0 %
Test CRC CEAD32A5
Copy CRC CEAD32A5
Copy OK

No errors occurred


AccurateRip summary

Track 1 accurately ripped (confidence 4) [7477EEAA]
Track 2 accurately ripped (confidence 3) [C9025039]

All tracks accurately ripped

End of status report


Tracklist CD13 - 1999 - No Leaf Clover (USA Promo CD, Elektra PRCD 1430-2):

01. No Leaf Clover (5:48)

Exact Audio Copy V0.99 prebeta 5 from 4. May 2009

EAC extraction logfile from 28. October 2011, 19:03

Metallica / No Leaf Clover (USA Promo CD, Elektra PRCD 1430-2)

Used drive : PIONEER DVD-RW DVR-215 Adapter: 5 ID: 0

Read mode : Secure
Utilize accurate stream : Yes
Defeat audio cache : Yes
Make use of C2 pointers : No

Read offset correction : 48
Overread into Lead-In and Lead-Out : No
Fill up missing offset samples with silence : Yes
Delete leading and trailing silent blocks : No
Null samples used in CRC calculations : Yes
Used interface : Native Win32 interface for Win NT & 2000

Used output format : User Defined Encoder
Selected bitrate : 1024 kBit/s
Quality : High
Add ID3 tag : No
Command line compressor : C:\Program Files (x86)\Exact Audio Copy\Flac\flac.exe
Additional command line options : -8 -V %s


TOC of the extracted CD

Track | Start | Length | Start sector | End sector
––––––––––––––––––––––––––––-
1 | 0:00.32 | 5:47.73 | 32 | 26129


Range status and errors

Selected range

Filename D:\bki71\Metallica\Metallica - No Leaf Clover (USA Promo CD, Elektra PRCD 1430-2).wav

Peak level 100.0 %
Range quality 100.0 %
Test CRC E1E05191
Copy CRC E1E05191
Copy OK

No errors occurred


AccurateRip summary

Track 1 not present in database

None of the tracks are present in the AccurateRip database

End of status report


Tracklist CD14 - 1999 - No Leaf Clover (Mexican Promo CD, Vertigo CDP 476-2):

01. No Leaf Clover (5:39)
02. Nothing Else Matters (6:27)

Exact Audio Copy V0.99 prebeta 5 from 4. May 2009

EAC extraction logfile from 28. October 2011, 18:32

Metallica / No Leaf Clover (Mexican Promo CD, Vertigo CDP 476-2)

Used drive : PIONEER DVD-RW DVR-215 Adapter: 5 ID: 0

Read mode : Secure
Utilize accurate stream : Yes
Defeat audio cache : Yes
Make use of C2 pointers : No

Read offset correction : 48
Overread into Lead-In and Lead-Out : No
Fill up missing offset samples with silence : Yes
Delete leading and trailing silent blocks : No
Null samples used in CRC calculations : Yes
Used interface : Native Win32 interface for Win NT & 2000

Used output format : User Defined Encoder
Selected bitrate : 1024 kBit/s
Quality : High
Add ID3 tag : No
Command line compressor : C:\Program Files (x86)\Exact Audio Copy\Flac\flac.exe
Additional command line options : -8 -V %s


TOC of the extracted CD

Track | Start | Length | Start sector | End sector
––––––––––––––––––––––––––––-
1 | 0:00.00 | 5:38.65 | 0 | 25414
2 | 5:38.65 | 6:27.30 | 25415 | 54469


Range status and errors

Selected range

Filename D:\bki71\Metallica\Metallica - No Leaf Clover (Mexican Promo CD, Vertigo CDP 476-2).wav

Peak level 67.8 %
Range quality 100.0 %
Test CRC CF307A9C
Copy CRC CF307A9C
Copy OK

No errors occurred


AccurateRip summary

Track 1 not present in database
Track 2 not present in database

None of the tracks are present in the AccurateRip database

End of status report


Tracklist CD15 - 1999 - No Leaf Clover (Australian Exclusive, Vertigo 562 700-2):

01. No Leaf Clover (5:42)
02. One (7:46)
03. Enter Sandman (7:10)

Exact Audio Copy V0.99 prebeta 5 from 4. May 2009

EAC extraction logfile from 28. October 2011, 18:43

Metallica / No Leaf Clover (Australian Exclusive, Vertigo 562 700-2)

Used drive : PIONEER DVD-RW DVR-215 Adapter: 5 ID: 0

Read mode : Secure
Utilize accurate stream : Yes
Defeat audio cache : Yes
Make use of C2 pointers : No

Read offset correction : 48
Overread into Lead-In and Lead-Out : No
Fill up missing offset samples with silence : Yes
Delete leading and trailing silent blocks : No
Null samples used in CRC calculations : Yes
Used interface : Native Win32 interface for Win NT & 2000

Used output format : User Defined Encoder
Selected bitrate : 1024 kBit/s
Quality : High
Add ID3 tag : No
Command line compressor : C:\Program Files (x86)\Exact Audio Copy\Flac\flac.exe
Additional command line options : -8 -V %s


TOC of the extracted CD

Track | Start | Length | Start sector | End sector
––––––––––––––––––––––––––––-
1 | 0:00.00 | 5:41.65 | 0 | 25639
2 | 5:41.65 | 7:45.65 | 25640 | 60579
3 | 13:27.55 | 7:10.02 | 60580 | 92831
4 | 23:09.57 | 48:36.39 | 104232 | 322970


Range status and errors

Selected range

Filename D:\bki71\Metallica\Metallica - No Leaf Clover (Australian Exclusive, Vertigo 562 700-2).wav

Peak level 100.0 %
Range quality 100.0 %
Test CRC 5D4F0DF3
Copy CRC 5D4F0DF3
Copy OK

No errors occurred


AccurateRip summary

Track 1 accurately ripped (confidence 2) [11DE21A0]
Track 2 accurately ripped (confidence 2) [4D59D76B]
Track 3 accurately ripped (confidence 2) [70EEE0E4]

All tracks accurately ripped

End of status report


Tracklist CD16 - 2000 - I Disappear (Promo CD, Hollywood PRCD-11243-2):

01. I Disappear (4:27)

Exact Audio Copy V0.99 prebeta 5 from 4. May 2009

EAC extraction logfile from 28. October 2011, 18:04

Metallica / I Disappear (Promo CD, Hollywood PRCD-11243-2)

Used drive : PIONEER DVD-RW DVR-215 Adapter: 5 ID: 0

Read mode : Secure
Utilize accurate stream : Yes
Defeat audio cache : Yes
Make use of C2 pointers : No

Read offset correction : 48
Overread into Lead-In and Lead-Out : No
Fill up missing offset samples with silence : Yes
Delete leading and trailing silent blocks : No
Null samples used in CRC calculations : Yes
Used interface : Native Win32 interface for Win NT & 2000

Used output format : User Defined Encoder
Selected bitrate : 1024 kBit/s
Quality : High
Add ID3 tag : No
Command line compressor : C:\Program Files (x86)\Exact Audio Copy\Flac\flac.exe
Additional command line options : -8 -V %s


TOC of the extracted CD

Track | Start | Length | Start sector | End sector
––––––––––––––––––––––––––––-
1 | 0:00.00 | 4:26.47 | 0 | 19996


Range status and errors

Selected range

Filename D:\bki71\Metallica\Metallica - I Disappear (Promo CD, Hollywood PRCD-11243-2).wav

Peak level 100.0 %
Range quality 99.9 %
Test CRC 45391282
Copy CRC 45391282
Copy OK

No errors occurred


AccurateRip summary

Track 1 cannot be verified as accurate (confidence 34) [CAAEB54C], AccurateRip returned [654FF171]

No tracks could be verified as accurate
You may have a different pressing from the one(s) in the database

End of status report


Tracklist CD17 - 2000 - I Disappear (Germany Hollywood 0113876HWR):

01. I Disappear (4:29)
02. I Disappear - Instrumental (4:26)

Exact Audio Copy V0.99 prebeta 5 from 4. May 2009

EAC extraction logfile from 28. October 2011, 11:19

Metallica / I Disappear (Germany Hollywood 0113876HWR)

Used drive : PLEXTOR DVDR PX-760A Adapter: 0 ID: 0

Read mode : Secure
Utilize accurate stream : Yes
Defeat audio cache : Yes
Make use of C2 pointers : No

Read offset correction : 30
Overread into Lead-In and Lead-Out : No
Fill up missing offset samples with silence : Yes
Delete leading and trailing silent blocks : No
Null samples used in CRC calculations : Yes
Used interface : Native Win32 interface for Win NT & 2000

Used output format : User Defined Encoder
Selected bitrate : 1024 kBit/s
Quality : High
Add ID3 tag : No
Command line compressor : C:\Program Files (x86)\Exact Audio Copy\Flac\flac.exe
Additional command line options : -8 -V %s


TOC of the extracted CD

Track | Start | Length | Start sector | End sector
––––––––––––––––––––––––––––-
1 | 0:00.00 | 4:28.45 | 0 | 20144
2 | 4:28.45 | 4:25.67 | 20145 | 40086


Range status and errors

Selected range

Filename D:\bki71\Metallica\Metallica - I Disappear (Germany Hollywood 0113876HWR).wav

Peak level 99.9 %
Range quality 100.0 %
Test CRC 43B0EAE5
Copy CRC 43B0EAE5
Copy OK

No errors occurred


AccurateRip summary

Track 1 accurately ripped (confidence 6) [F01DBAAE]
Track 2 accurately ripped (confidence 6) [80903241]

All tracks accurately ripped

End of status report


All thanks go to the original releaser

Metallica in my Blog

Download Metallica: Singles Collection part 01 (1984 - 1989):