Subcategories

Metalucifer - Heavy Metal Bulldozer (2016) [CD & DVD]

Posted By: v3122
Metalucifer - Heavy Metal Bulldozer (2016) [CD & DVD]

Metalucifer - Heavy Metal Bulldozer (2016)
EAC | Flac(Image) + Cue + Log & MP3 CBR 320Kbps
Iron Pegasus, I.P.086 | ~ 545 or 163 Mb | Artwork -> 104 Mb
DVD-5: NTSC 16:9 (720x480) VBR | LinearPCM, 2 ch
Heavy/Speed Metal

This is the third full-length album from Metalucifer, a Japanese band playing – you guessed it! – heavy metal.

This record was released in three different versions: an English language version with a German line-up headed by Blumi from Metal Inquisitor and two different versions (Japanese and English lyrics) with the Japanese line-up. I must admit that I skipped the German version, though. To me, it ain't Metalucifer if it doesn't have Gezol on vocals, sorry! Between the Japanese and English versions, I strongly recommend the former – Gezol is naturally more comfortable with his native language, and these songs have much greater vocal range as a result. Besides, the chorus parts are largely the same, and assuming you speak a little Japanese, the Japanese version is actually easier to understand…!

It has been eight years since the last Metalucifer album, and Heavy Metal Bulldozer is more than worth the wait. These songs are easily as good as almost anything from H.M. Drill or even their best, H.M. Chainsaw! For the most part, the songs on this record are a little slower than before, packed with mid-paced NWOBHM feeling, but songs like "Heavy Metal Battleaxe" and "Heavy Metal Bulldozer" will satisfy those looking for another "Flight of Iron Pegasus". In fact, there's a ton of variety on this record, up to and including a ballad in "Heavy Metal Mountain". My personal favorite, "Heavy Metal Demons", even has a bit of a Sabbat sound to it! The best part is that every single song is catchy and memorable; this record is stuffed with soon-to-be-classic examples of the Metalucifer sound. I don't think there's even so much as a nanosecond of filler here.

Fans of NWOBHM-era bands like Saxon and Angel Witch ought to get Heavy Metal Bulldozer; so should people into Japanese bands like Sabbat, Gorgon, and Magnesium… and so should you, yes, you! Nobody who likes riffs, solos, and HEAVY fuckin' METAL could possibly be disappointed by this record! Highest recommendations.

Standout tracks: "Heavy Metal Battleaxe", "Heavy Metal Warriors", "Heavy Metal Demons"

by vorfeed, metal-archives.com
Metalucifer - Heavy Metal Bulldozer (2016):

Metalucifer - Heavy Metal Bulldozer (2016) [CD & DVD]

Tracklist CD:

01.Heavy Metal Ironfists
02.Heavy Metal Bulldozer
03.Heavy Metal Battleaxe
04.Heavy Metal Warriors
05.Heavy Metal Highway Rider
06.Heavy Metal Mountain
07.Heavy Metal Wings of Steel
08.Heavy Metal Ambition
09.Heavy Metalucifer
10.Heavy Metal Demons

Bonus tracks:

11.Heavy Metal Battleaxe (Japanese lyrics, unreleased version)
12.Heavy Metal Ambition (Japanese lyrics, unreleased version)

Exact Audio Copy V1.0 beta 3 from 29. August 2011

EAC extraction logfile from 28. August 2017, 22:20

Metalucifer / Heavy Metal Bulldozer (Reissue 2016)

Used drive : Optiarc DVD RW AD-7260S Adapter: 1 ID: 1

Read mode : Secure
Utilize accurate stream : Yes
Defeat audio cache : Yes
Make use of C2 pointers : No

Read offset correction : 48
Overread into Lead-In and Lead-Out : No
Fill up missing offset samples with silence : Yes
Delete leading and trailing silent blocks : No
Null samples used in CRC calculations : Yes
Used interface : Native Win32 interface for Win NT & 2000

Used output format : Internal WAV Routines
Sample format : 44.100 Hz; 16 Bit; Stereo


TOC of the extracted CD

Track | Start | Length | Start sector | End sector
––––––––––––––––––––––––––––-
1 | 0:00.00 | 6:25.30 | 0 | 28904
2 | 6:25.30 | 5:45.30 | 28905 | 54809
3 | 12:10.60 | 4:34.41 | 54810 | 75400
4 | 16:45.26 | 5:52.68 | 75401 | 101868
5 | 22:38.19 | 4:36.61 | 101869 | 122629
6 | 27:15.05 | 7:19.64 | 122630 | 155618
7 | 34:34.69 | 4:43.55 | 155619 | 176898
8 | 39:18.49 | 4:41.74 | 176899 | 198047
9 | 44:00.48 | 7:26.10 | 198048 | 231507
10 | 51:26.58 | 8:09.26 | 231508 | 268208
11 | 59:36.09 | 4:34.20 | 268209 | 288778
12 | 64:10.29 | 4:42.11 | 288779 | 309939


Range status and errors

Selected range

Filename C:\Мои документы\Metalucifer - 2009 - Heavy Metal Bulldozer (Reissue 2016).wav

Peak level 100.0 %
Extraction speed 4.2 X
Range quality 100.0 %
Test CRC C5373751
Copy CRC C5373751
Copy OK

No errors occurred


AccurateRip summary

Track 1 not present in database
Track 2 not present in database
Track 3 not present in database
Track 4 not present in database
Track 5 not present in database
Track 6 not present in database
Track 7 not present in database
Track 8 not present in database
Track 9 not present in database
Track 10 not present in database
Track 11 not present in database
Track 12 not present in database

None of the tracks are present in the AccurateRip database

End of status report

–– CUETools DB Plugin V2.1.4

[CTDB TOCID: lvSEa95OGclx3iSgT4dumCw2Yds-] disk not present in database
Submit result: lvSEa95OGclx3iSgT4dumCw2Yds- has been uploaded


==== Log checksum 42063795D103AD908BAC1EBA703F2D04A17525DD7D7E00E71EA7EF525AEDEC6D ====


[CUETools log; Date: 09.12.2019 10:13:19; Version: 2.1.4]
[AccurateRip ID: 001eb5c9-011f1b82-a710240c] disk not present in database.

Track Peak [ CRC32 ] [W/O NULL] [ LOG ]
– 100,0 [C5373751] [92B32388] CRC32
01 100,0 [73163974] [C9E27C22]
02 100,0 [A32BBD79] [178E18A0]
03 89,0 [9B69D241] [A04366FC]
04 100,0 [62275966] [0DB88AB5]
05 87,4 [96C6238D] [EE11CC95]
06 85,7 [AF12436F] [86A908F2]
07 91,7 [FC1B703A] [9D10FE39]
08 93,8 [4D0BBD00] [ABBEBEE5]
09 100,0 [09E894D1] [53B483FC]
10 100,0 [D2A5A1BF] [70E38C7F]
11 99,9 [1D935297] [74F968AF]
12 100,0 [E709D768] [C9F521BE]


Metalucifer - Heavy Metal Bulldozer (2016) [CD & DVD]

Tracklist DVD:

Live In Japan 2010
1 Heavy Metal Introslaughter
2 Heavy Metal Iron Fists
3 Heavy Metal Drill
4 Heavy Metal Chainsaw
5 Heavy Metal Bulldozer
6 Heavy Metal Highway Rider
7 Heavy Metal Hunter
8 Heavy Metal Samurai

Title: Metalucifer 2009 - Heavy Metal Bulldozer - DVD
Size: 3.28 Gb ( 3 434 474,00 KBytes ) - DVD-5
Enabled regions: 1, 2, 3, 4, 5, 6, 7, 8

VTS_01 :
Play Length: 00:50:13
Video: NTSC 16:9 (720x480) VBR, Auto Pan&Scan, Auto Letterboxed
Audio:
Not specified (LinearPCM, 2 ch)


Metalucifer - Heavy Metal Bulldozer (2016) [CD & DVD]

Metalucifer - Heavy Metal Bulldozer (2016) [CD & DVD]

Metalucifer - Heavy Metal Bulldozer (2016) [CD & DVD]

All thanks go to the original releasers

Download Metalucifer - Heavy Metal Bulldozer (2016):