Subcategories

Michael Bolton - Gold (3CD, 2019)

Posted By: ciklon5
Michael Bolton - Gold (3CD, 2019)

Michael Bolton - Gold (3CD, 2019)
FLAC (tracks+.cue) | 03:13:47 | 1,3 Gb
Genre: Pop, Rock, Soul / Label: Crimson Productions

Crimson Gold presents Michael Bolton 'Gold', the only Michael Bolton compilation you'll ever need. Michael Bolton is a multiple Grammy Award-winning singer-songwriter who has sold over 65 million records internationally and continues to perform to audiences across the globe. This definitive 3CD career spanning set features 45 tracks including a remarkable 17 UK Top 40 singles. Highlights include the top ten singles 'How Am I Supposed To Live Without You', 'When A Man Loves A Woman' and 'Can I Touch You…There?' CD 1 opens with the Grammy-Award-winning UK #3 hit single 'How Am I Supposed To Live Without You' which became a modern pop standard around the world. CD 2 features more top twenty singles including 'When A Man Loves A Woman' as well as the song 'Steel Bars' which Bolton co-wrote with Bob Dylan. Another highlight is Bolton's duet with Suzi Benson on 'From Now On'. CD3 includes the hit single 'Can I Touch You… There?' along with Bolton covering classic tracks such as 'Ain't No Sunshine', '(What A) Wonderful World' and 'Sexual Healing'. Highlights are also available on a 1LP version, pressed on 180g gold-colored vinyl.

Track List:
CD1
01. How Am I Supposed To Live Without You (4:17)
02. How Can We Be Lovers (3:57)
03. When I'm Back On My Feet Again (3:49)
04. Soul Provider (4:29)
05. (Sittin' On) The Dock Of The Bay (3:55)
06. That's What Love Is All About (3:59)
07. Walk Away (4:14)
08. Gina (4:09)
09. Georgia On My Mind (4:59)
10. The Hunger (4:20)
11. Fool's Game (3:56)
12. Everybody's Crazy (4:44)
13. I Almost Believed You (4:05)
14. She Did The Same Thing (3:53)
15. Wait On Love (4:27)

CD2
01. When A Man Loves A Woman (3:53)
02. Time, Love And Tenderness (4:19)
03. Love Is A Wonderful Thing (4:44)
04. Said I Loved You… But I Lied (5:04)
05. Steel Bars (3:28)
06. Missing You Now (4:35)
07. Yesterday (3:31)
08. Completely (4:27)
09. Soul Of My Soul (4:51)
10. Once In A Lifetime (5:56)
11. I Found Someone (3:49)
12. Love Is The Power (5:36)
13. From Now On (4:09)
14. Drift Away (3:53)
15. Reach Out I'll Be There (3:49)

CD3
01. To Love Somebody (4:10)
02. Can I Touch You… There? (4:50)
03. Lean On Me (4:22)
04. The Best Of Love (4:17)
05. Hold On, I'm Coming (3:15)
06. Since I Fell For You (3:09)
07. Ain't Got Nothing If You Ain't Got Love (5:06)
08. Sexual Healing (4:05)
09. Whiter Shade Of Pale (4:44)
10. (What A) Wonderful World (4:07)
11. A Love So Beautiful (4:07)
12. I Promise You (5:21)
13. The River (5:18)
14. Safe From The Storm (4:31)
15. Ain't No Sunshine (3:33)

Exact Audio Copy V1.1 from 23. June 2015

EAC extraction logfile from 18. November 2019, 18:25

Michael Bolton / Gold

Used drive : SlimtypeeBAU108 6 L Adapter: 1 ID: 0

Read mode : Secure
Utilize accurate stream : Yes
Defeat audio cache : Yes
Make use of C2 pointers : No

Read offset correction : 6
Overread into Lead-In and Lead-Out : No
Fill up missing offset samples with silence : Yes
Delete leading and trailing silent blocks : No
Null samples used in CRC calculations : Yes
Used interface : Native Win32 interface for Win NT & 2000
Gap handling : Appended to previous track

Used output format : User Defined Encoder
Selected bitrate : 1024 kBit/s
Quality : High
Add ID3 tag : No
Command line compressor : D:\Software\flac-1.2.1-win\bin\flac.exe
Additional command line options : -8 -V -T "ARTIST=%artist%" -T "TITLE=%title%" -T "ALBUM=%albumtitle%" -T "DATE=%year%" -T "TRACKNUMBER=%tracknr%" -T "GENRE=%genre%" -T "PERFORMER=%albuminterpret%" -T "COMPOSER=%composer%" %haslyrics%–tag-from-file=LYRICS="%lyricsfile%"%haslyrics% -T "ALBUMARTIST=%albumartist%" -T "DISCNUMBER=%cdnumber%" -T "TOTALDISCS=%totalcds%" -T "TOTALTRACKS=%numtracks%" -T "COMMENT=%comment%" %source% -o %dest%


TOC of the extracted CD

Track | Start | Length | Start sector | End sector
––––––––––––––––––––––––––––-
1 | 0:00.00 | 4:16.49 | 0 | 19248
2 | 4:16.49 | 3:56.69 | 19249 | 37017
3 | 8:13.43 | 3:49.37 | 37018 | 54229
4 | 12:03.05 | 4:28.62 | 54230 | 74391
5 | 16:31.67 | 3:54.38 | 74392 | 91979
6 | 20:26.30 | 3:58.66 | 91980 | 109895
7 | 24:25.21 | 4:13.42 | 109896 | 128912
8 | 28:38.63 | 4:08.56 | 128913 | 147568
9 | 32:47.44 | 4:59.23 | 147569 | 170016
10 | 37:46.67 | 4:20.29 | 170017 | 189545
11 | 42:07.21 | 3:56.11 | 189546 | 207256
12 | 46:03.32 | 4:44.06 | 207257 | 228562
13 | 50:47.38 | 4:05.23 | 228563 | 246960
14 | 54:52.61 | 3:53.08 | 246961 | 264443
15 | 58:45.69 | 4:26.44 | 264444 | 284437


Track 1

Filename E:\BGMusic\Michael Bolton - Gold\CD1\01 - How Am I Supposed To Live Without You.wav

Pre-gap length 0:00:02.00

Peak level 94.3 %
Extraction speed 2.4 X
Track quality 99.9 %
Test CRC 88842C34
Copy CRC 88842C34
Track not present in AccurateRip database
Copy OK

Track 2

Filename E:\BGMusic\Michael Bolton - Gold\CD1\02 - How Can We Be Lovers.wav

Pre-gap length 0:00:01.82

Peak level 87.0 %
Extraction speed 3.1 X
Track quality 100.0 %
Test CRC 4CD102F1
Copy CRC 4CD102F1
Track not present in AccurateRip database
Copy OK

Track 3

Filename E:\BGMusic\Michael Bolton - Gold\CD1\03 - When I'm Back On My Feet Again.wav

Pre-gap length 0:00:02.00

Peak level 98.8 %
Extraction speed 3.3 X
Track quality 100.0 %
Test CRC 4D5FD568
Copy CRC 4D5FD568
Track not present in AccurateRip database
Copy OK

Track 4

Filename E:\BGMusic\Michael Bolton - Gold\CD1\04 - Soul Provider.wav

Pre-gap length 0:00:01.84

Peak level 94.3 %
Extraction speed 3.6 X
Track quality 100.0 %
Test CRC 4AD05350
Copy CRC 4AD05350
Track not present in AccurateRip database
Copy OK

Track 5

Filename E:\BGMusic\Michael Bolton - Gold\CD1\05 - (Sittin' On) The Dock Of The Bay.wav

Pre-gap length 0:00:01.45

Peak level 94.3 %
Extraction speed 3.8 X
Track quality 100.0 %
Test CRC 9D184507
Copy CRC 9D184507
Track not present in AccurateRip database
Copy OK

Track 6

Filename E:\BGMusic\Michael Bolton - Gold\CD1\06 - That's What Love Is All About.wav

Pre-gap length 0:00:01.96

Peak level 94.3 %
Extraction speed 4.1 X
Track quality 100.0 %
Test CRC F3814C0E
Copy CRC F3814C0E
Track not present in AccurateRip database
Copy OK

Track 7

Filename E:\BGMusic\Michael Bolton - Gold\CD1\07 - Walk Away.wav

Pre-gap length 0:00:01.80

Peak level 94.3 %
Extraction speed 4.3 X
Track quality 100.0 %
Test CRC D05E556B
Copy CRC D05E556B
Track not present in AccurateRip database
Copy OK

Track 8

Filename E:\BGMusic\Michael Bolton - Gold\CD1\08 - Gina.wav

Pre-gap length 0:00:01.61

Peak level 94.3 %
Extraction speed 4.5 X
Track quality 100.0 %
Test CRC D144BDB2
Copy CRC D144BDB2
Track not present in AccurateRip database
Copy OK

Track 9

Filename E:\BGMusic\Michael Bolton - Gold\CD1\09 - Georgia On My Mind.wav

Pre-gap length 0:00:01.66

Peak level 94.3 %
Extraction speed 4.7 X
Track quality 100.0 %
Test CRC A6166227
Copy CRC A6166227
Track not present in AccurateRip database
Copy OK

Track 10

Filename E:\BGMusic\Michael Bolton - Gold\CD1\10 - The Hunger.wav

Pre-gap length 0:00:01.82

Peak level 94.3 %
Extraction speed 4.9 X
Track quality 100.0 %
Test CRC 01F60FE5
Copy CRC 01F60FE5
Track not present in AccurateRip database
Copy OK

Track 11

Filename E:\BGMusic\Michael Bolton - Gold\CD1\11 - Fool's Game.wav

Pre-gap length 0:00:01.61

Peak level 94.3 %
Extraction speed 5.0 X
Track quality 100.0 %
Test CRC 0CA922E2
Copy CRC 0CA922E2
Track not present in AccurateRip database
Copy OK

Track 12

Filename E:\BGMusic\Michael Bolton - Gold\CD1\12 - Everybody's Crazy.wav

Pre-gap length 0:00:01.60

Peak level 94.3 %
Extraction speed 5.3 X
Track quality 100.0 %
Test CRC DBC790D2
Copy CRC DBC790D2
Track not present in AccurateRip database
Copy OK

Track 13

Filename E:\BGMusic\Michael Bolton - Gold\CD1\13 - I Almost Believed You.wav

Pre-gap length 0:00:01.77

Peak level 94.3 %
Extraction speed 5.4 X
Track quality 100.0 %
Test CRC F23084B7
Copy CRC F23084B7
Track not present in AccurateRip database
Copy OK

Track 14

Filename E:\BGMusic\Michael Bolton - Gold\CD1\14 - She Did The Same Thing.wav

Pre-gap length 0:00:01.33

Peak level 94.3 %
Extraction speed 5.5 X
Track quality 100.0 %
Test CRC 71B3830D
Copy CRC 71B3830D
Track not present in AccurateRip database
Copy OK

Track 15

Filename E:\BGMusic\Michael Bolton - Gold\CD1\15 - Wait On Love.wav

Pre-gap length 0:00:01.92

Peak level 94.3 %
Extraction speed 4.8 X
Track quality 99.9 %
Test CRC D98C8F99
Copy CRC D98C8F99
Track not present in AccurateRip database
Copy OK


None of the tracks are present in the AccurateRip database

No errors occurred

End of status report

–– CUETools DB Plugin V2.1.6

[CTDB TOCID: YVBcj8KTzOPYU6wVKfZXQCQdJNA-] found
Submit result: YVBcj8KTzOPYU6wVKfZXQCQdJNA- has been confirmed
Track | CTDB Status
1 | (1/1) Accurately ripped
2 | (1/1) Accurately ripped
3 | (1/1) Accurately ripped
4 | (1/1) Accurately ripped
5 | (1/1) Accurately ripped
6 | (1/1) Accurately ripped
7 | (1/1) Accurately ripped
8 | (1/1) Accurately ripped
9 | (1/1) Accurately ripped
10 | (1/1) Accurately ripped
11 | (1/1) Accurately ripped
12 | (1/1) Accurately ripped
13 | (1/1) Accurately ripped
14 | (1/1) Accurately ripped
15 | (1/1) Accurately ripped


==== Log checksum 9FE16018C938EFDE5F1D58EDC0E3306972BC15E4305FC22D30B7CB46CF773BC6 ====

Exact Audio Copy V1.1 from 23. June 2015

EAC extraction logfile from 18. November 2019, 19:50

Michael Bolton / Gold

Used drive : SlimtypeeBAU108 6 L Adapter: 1 ID: 0

Read mode : Secure
Utilize accurate stream : Yes
Defeat audio cache : Yes
Make use of C2 pointers : No

Read offset correction : 6
Overread into Lead-In and Lead-Out : No
Fill up missing offset samples with silence : Yes
Delete leading and trailing silent blocks : No
Null samples used in CRC calculations : Yes
Used interface : Native Win32 interface for Win NT & 2000
Gap handling : Appended to previous track

Used output format : User Defined Encoder
Selected bitrate : 1024 kBit/s
Quality : High
Add ID3 tag : No
Command line compressor : D:\Software\flac-1.2.1-win\bin\flac.exe
Additional command line options : -8 -V -T "ARTIST=%artist%" -T "TITLE=%title%" -T "ALBUM=%albumtitle%" -T "DATE=%year%" -T "TRACKNUMBER=%tracknr%" -T "GENRE=%genre%" -T "PERFORMER=%albuminterpret%" -T "COMPOSER=%composer%" %haslyrics%–tag-from-file=LYRICS="%lyricsfile%"%haslyrics% -T "ALBUMARTIST=%albumartist%" -T "DISCNUMBER=%cdnumber%" -T "TOTALDISCS=%totalcds%" -T "TOTALTRACKS=%numtracks%" -T "COMMENT=%comment%" %source% -o %dest%


TOC of the extracted CD

Track | Start | Length | Start sector | End sector
––––––––––––––––––––––––––––-
1 | 0:00.00 | 3:52.43 | 0 | 17442
2 | 3:52.43 | 4:18.62 | 17443 | 36854
3 | 8:11.30 | 4:43.64 | 36855 | 58143
4 | 12:55.19 | 5:04.21 | 58144 | 80964
5 | 17:59.40 | 3:27.61 | 80965 | 96550
6 | 21:27.26 | 4:35.09 | 96551 | 117184
7 | 26:02.35 | 3:30.56 | 117185 | 132990
8 | 29:33.16 | 4:26.68 | 132991 | 153008
9 | 34:00.09 | 4:50.40 | 153009 | 174798
10 | 38:50.49 | 5:55.65 | 174799 | 201488
11 | 44:46.39 | 3:49.31 | 201489 | 218694
12 | 48:35.70 | 5:35.54 | 218695 | 243873
13 | 54:11.49 | 4:09.13 | 243874 | 262561
14 | 58:20.62 | 3:52.38 | 262562 | 279999
15 | 62:13.25 | 3:48.58 | 280000 | 297157


Track 1

Filename E:\BGMusic\Michael Bolton - Gold\CD2\01 - Michael Bolton - When A Man Loves A Woman.wav

Pre-gap length 0:00:02.00

Peak level 94.3 %
Extraction speed 1.2 X
Track quality 100.0 %
Test CRC 9FB8662E
Copy CRC 9FB8662E
Track not present in AccurateRip database
Copy OK

Track 2

Filename E:\BGMusic\Michael Bolton - Gold\CD2\02 - Michael Bolton - Time, Love And Tenderness.wav

Pre-gap length 0:00:01.37

Peak level 94.3 %
Extraction speed 1.3 X
Track quality 100.0 %
Test CRC 0B199F6A
Copy CRC 0B199F6A
Track not present in AccurateRip database
Copy OK

Track 3

Filename E:\BGMusic\Michael Bolton - Gold\CD2\03 - Michael Bolton - Love Is A Wonderful Thing.wav

Pre-gap length 0:00:01.52

Peak level 82.2 %
Extraction speed 1.3 X
Track quality 99.9 %
Test CRC 9FCEAFBB
Copy CRC 9FCEAFBB
Track not present in AccurateRip database
Copy OK

Track 4

Filename E:\BGMusic\Michael Bolton - Gold\CD2\04 - Michael Bolton - Said I Loved You… But I Lied.wav

Pre-gap length 0:00:02.10

Peak level 82.2 %
Extraction speed 1.6 X
Track quality 100.0 %
Test CRC 50B6EB79
Copy CRC 50B6EB79
Track not present in AccurateRip database
Copy OK

Track 5

Filename E:\BGMusic\Michael Bolton - Gold\CD2\05 - Michael Bolton - Steel Bars.wav

Pre-gap length 0:00:02.40

Peak level 88.0 %
Extraction speed 1.4 X
Track quality 99.9 %
Test CRC BEE31960
Copy CRC BEE31960
Track not present in AccurateRip database
Copy OK

Track 6

Filename E:\BGMusic\Michael Bolton - Gold\CD2\06 - Michael Bolton - Missing You Now.wav

Pre-gap length 0:00:01.89

Peak level 94.3 %
Extraction speed 1.8 X
Track quality 100.0 %
Test CRC 81A7BB8A
Copy CRC 81A7BB8A
Track not present in AccurateRip database
Copy OK

Track 7

Filename E:\BGMusic\Michael Bolton - Gold\CD2\07 - Michael Bolton - Yesterday.wav

Pre-gap length 0:00:02.08

Peak level 94.3 %
Extraction speed 1.8 X
Track quality 100.0 %
Test CRC 5F0DED53
Copy CRC 5F0DED53
Track not present in AccurateRip database
Copy OK

Track 8

Filename E:\BGMusic\Michael Bolton - Gold\CD2\08 - Michael Bolton - Completely.wav

Pre-gap length 0:00:01.73

Peak level 94.3 %
Extraction speed 1.7 X
Track quality 99.9 %
Test CRC 30E5C50E
Copy CRC 30E5C50E
Track not present in AccurateRip database
Copy OK

Track 9

Filename E:\BGMusic\Michael Bolton - Gold\CD2\09 - Michael Bolton - Soul Of My Soul.wav

Pre-gap length 0:00:02.00

Peak level 94.3 %
Extraction speed 2.0 X
Track quality 100.0 %
Test CRC 17EC7128
Copy CRC 17EC7128
Track not present in AccurateRip database
Copy OK

Track 10

Filename E:\BGMusic\Michael Bolton - Gold\CD2\10 - Michael Bolton - Once In A Lifetime.wav

Pre-gap length 0:00:01.94

Peak level 79.4 %
Extraction speed 2.0 X
Track quality 99.9 %
Test CRC 0ED19F2F
Copy CRC 0ED19F2F
Track not present in AccurateRip database
Copy OK

Track 11

Filename E:\BGMusic\Michael Bolton - Gold\CD2\11 - Michael Bolton - I Found Someone.wav

Pre-gap length 0:00:01.94

Peak level 91.1 %
Extraction speed 1.9 X
Track quality 99.9 %
Test CRC 2C4B1B2D
Copy CRC 2C4B1B2D
Track not present in AccurateRip database
Copy OK

Track 12

Filename E:\BGMusic\Michael Bolton - Gold\CD2\12 - Michael Bolton - Love Is The Power.wav

Pre-gap length 0:00:01.74

Peak level 93.3 %
Extraction speed 2.3 X
Track quality 100.0 %
Test CRC 5BFCABCC
Copy CRC 5BFCABCC
Track not present in AccurateRip database
Copy OK

Track 13

Filename E:\BGMusic\Michael Bolton - Gold\CD2\13 - Michael Bolton with Suzie Benson - From Now On.wav

Pre-gap length 0:00:01.88

Peak level 94.3 %
Extraction speed 2.4 X
Track quality 100.0 %
Test CRC F186E17C
Copy CRC F186E17C
Track not present in AccurateRip database
Copy OK

Track 14

Filename E:\BGMusic\Michael Bolton - Gold\CD2\14 - Michael Bolton - Drift Away.wav

Pre-gap length 0:00:01.60

Peak level 90.1 %
Extraction speed 2.4 X
Track quality 100.0 %
Test CRC 52A3B30A
Copy CRC 52A3B30A
Track not present in AccurateRip database
Copy OK

Track 15

Filename E:\BGMusic\Michael Bolton - Gold\CD2\15 - Michael Bolton - Reach Out I'll Be There.wav

Pre-gap length 0:00:01.44

Peak level 84.1 %
Extraction speed 2.1 X
Track quality 99.9 %
Test CRC 2AA466B0
Copy CRC 2AA466B0
Track not present in AccurateRip database
Copy OK


None of the tracks are present in the AccurateRip database

No errors occurred

End of status report

–– CUETools DB Plugin V2.1.6

[CTDB TOCID: YBFxSr8nS61Ma1YEFDgxv1aTgug-] disk not present in database
Submit result: 请求被中止: 请求已被取消。


==== Log checksum A7703C904C881E0D12F37B2E15056E6B0AD1801BBA6F1E3393D14E2CB4C8EE1A ====

Exact Audio Copy V1.1 from 23. June 2015

EAC extraction logfile from 18. November 2019, 21:11

Michael Bolton / Gold

Used drive : SlimtypeeBAU108 6 L Adapter: 1 ID: 0

Read mode : Secure
Utilize accurate stream : Yes
Defeat audio cache : Yes
Make use of C2 pointers : No

Read offset correction : 6
Overread into Lead-In and Lead-Out : No
Fill up missing offset samples with silence : Yes
Delete leading and trailing silent blocks : No
Null samples used in CRC calculations : Yes
Used interface : Native Win32 interface for Win NT & 2000
Gap handling : Appended to previous track

Used output format : User Defined Encoder
Selected bitrate : 1024 kBit/s
Quality : High
Add ID3 tag : No
Command line compressor : D:\Software\flac-1.2.1-win\bin\flac.exe
Additional command line options : -8 -V -T "ARTIST=%artist%" -T "TITLE=%title%" -T "ALBUM=%albumtitle%" -T "DATE=%year%" -T "TRACKNUMBER=%tracknr%" -T "GENRE=%genre%" -T "PERFORMER=%albuminterpret%" -T "COMPOSER=%composer%" %haslyrics%–tag-from-file=LYRICS="%lyricsfile%"%haslyrics% -T "ALBUMARTIST=%albumartist%" -T "DISCNUMBER=%cdnumber%" -T "TOTALDISCS=%totalcds%" -T "TOTALTRACKS=%numtracks%" -T "COMMENT=%comment%" %source% -o %dest%


TOC of the extracted CD

Track | Start | Length | Start sector | End sector
––––––––––––––––––––––––––––-
1 | 0:00.00 | 4:09.60 | 0 | 18734
2 | 4:09.60 | 4:50.11 | 18735 | 40495
3 | 8:59.71 | 4:21.56 | 40496 | 60126
4 | 13:21.52 | 4:16.47 | 60127 | 79373
5 | 17:38.24 | 3:15.07 | 79374 | 94005
6 | 20:53.31 | 3:08.65 | 94006 | 108170
7 | 24:02.21 | 5:06.23 | 108171 | 131143
8 | 29:08.44 | 4:04.46 | 131144 | 149489
9 | 33:13.15 | 4:44.19 | 149490 | 170808
10 | 37:57.34 | 4:07.15 | 170809 | 189348
11 | 42:04.49 | 4:07.34 | 189349 | 207907
12 | 46:12.08 | 5:21.08 | 207908 | 231990
13 | 51:33.16 | 5:17.66 | 231991 | 255831
14 | 56:51.07 | 4:31.02 | 255832 | 276158
15 | 61:22.09 | 3:33.32 | 276159 | 292165


Track 1

Filename E:\BGMusic\Michael Bolton - Gold\CD3\01 - To Love Somebody.wav

Pre-gap length 0:00:02.00

Peak level 85.1 %
Extraction speed 1.2 X
Track quality 100.0 %
Test CRC 51167930
Copy CRC 51167930
Track not present in AccurateRip database
Copy OK

Track 2

Filename E:\BGMusic\Michael Bolton - Gold\CD3\02 - Can I Touch You… There.wav

Pre-gap length 0:00:01.88

Peak level 85.1 %
Extraction speed 1.2 X
Track quality 99.9 %
Test CRC C4DB680D
Copy CRC C4DB680D
Track not present in AccurateRip database
Copy OK

Track 3

Filename E:\BGMusic\Michael Bolton - Gold\CD3\03 - Lean On Me.wav

Pre-gap length 0:00:01.45

Peak level 89.1 %
Extraction speed 1.4 X
Track quality 100.0 %
Test CRC E8BA3DEF
Copy CRC E8BA3DEF
Track not present in AccurateRip database
Copy OK

Track 4

Filename E:\BGMusic\Michael Bolton - Gold\CD3\04 - The Best Of Love.wav

Pre-gap length 0:00:02.10

Peak level 82.2 %
Extraction speed 1.4 X
Track quality 99.9 %
Test CRC F1585ED5
Copy CRC F1585ED5
Track not present in AccurateRip database
Copy OK

Track 5

Filename E:\BGMusic\Michael Bolton - Gold\CD3\05 - Hold On, I'm Coming.wav

Pre-gap length 0:00:01.54

Peak level 94.3 %
Extraction speed 1.6 X
Track quality 100.0 %
Test CRC 0033E3A7
Copy CRC 0033E3A7
Track not present in AccurateRip database
Copy OK

Track 6

Filename E:\BGMusic\Michael Bolton - Gold\CD3\06 - Since I Fell For You.wav

Pre-gap length 0:00:01.44

Peak level 91.1 %
Extraction speed 1.4 X
Track quality 99.9 %
Test CRC 2FBEC224
Copy CRC 2FBEC224
Track not present in AccurateRip database
Copy OK

Track 7

Filename E:\BGMusic\Michael Bolton - Gold\CD3\07 - Ain't Got Nothing If You Ain't Got Love.wav

Pre-gap length 0:00:01.78

Peak level 82.2 %
Extraction speed 1.8 X
Track quality 100.0 %
Test CRC AD309502
Copy CRC AD309502
Track not present in AccurateRip database
Copy OK

Track 8

Filename E:\BGMusic\Michael Bolton - Gold\CD3\08 - Sexual Healing.wav

Pre-gap length 0:00:02.69

Peak level 82.2 %
Extraction speed 1.9 X
Track quality 100.0 %
Test CRC A61F65E1
Copy CRC A61F65E1
Track not present in AccurateRip database
Copy OK

Track 9

Filename E:\BGMusic\Michael Bolton - Gold\CD3\09 - Whiter Shade Of Pale.wav

Pre-gap length 0:00:01.65

Peak level 79.4 %
Extraction speed 2.0 X
Track quality 100.0 %
Test CRC C792B01C
Copy CRC C792B01C
Track not present in AccurateRip database
Copy OK

Track 10

Filename E:\BGMusic\Michael Bolton - Gold\CD3\10 - (What A) Wonderful World.wav

Pre-gap length 0:00:01.77

Peak level 79.4 %
Extraction speed 2.1 X
Track quality 100.0 %
Test CRC EDE1D94A
Copy CRC EDE1D94A
Track not present in AccurateRip database
Copy OK

Track 11

Filename E:\BGMusic\Michael Bolton - Gold\CD3\11 - A Love So Beautiful.wav

Pre-gap length 0:00:01.49

Peak level 94.3 %
Extraction speed 2.1 X
Track quality 100.0 %
Test CRC F8274025
Copy CRC F8274025
Track not present in AccurateRip database
Copy OK

Track 12

Filename E:\BGMusic\Michael Bolton - Gold\CD3\12 - I Promise You.wav

Pre-gap length 0:00:01.78

Peak level 80.3 %
Extraction speed 2.3 X
Track quality 100.0 %
Test CRC 3511E813
Copy CRC 3511E813
Track not present in AccurateRip database
Copy OK

Track 13

Filename E:\BGMusic\Michael Bolton - Gold\CD3\13 - The River.wav

Pre-gap length 0:00:01.16

Peak level 94.3 %
Extraction speed 2.4 X
Track quality 100.0 %
Test CRC 2BEB4914
Copy CRC 2BEB4914
Track not present in AccurateRip database
Copy OK

Track 14

Filename E:\BGMusic\Michael Bolton - Gold\CD3\14 - Safe From The Storm.wav

Pre-gap length 0:00:01.86

Peak level 94.3 %
Extraction speed 2.4 X
Track quality 100.0 %
Test CRC 7462037A
Copy CRC 7462037A
Track not present in AccurateRip database
Copy OK

Track 15

Filename E:\BGMusic\Michael Bolton - Gold\CD3\15 - Ain't No Sunshine.wav

Pre-gap length 0:00:01.28

Peak level 79.4 %
Extraction speed 2.4 X
Track quality 100.0 %
Test CRC 1353D88E
Copy CRC 1353D88E
Track not present in AccurateRip database
Copy OK


None of the tracks are present in the AccurateRip database

No errors occurred

End of status report

–– CUETools DB Plugin V2.1.6

[CTDB TOCID: yg5KdxWZd3vMih6IvzaGn5VymUU-] disk not present in database
Submit result: yg5KdxWZd3vMih6IvzaGn5VymUU- has been uploaded


==== Log checksum 06AF01C1FB5BCDB09C4D0D0A7E4896A01B429F21956D1F625524990AFA25643D ====