Subcategories
Tags
Language
Tags

Michael Bolton - Vintage (2003) {2004, Special Edition}

Posted By: popsakov
Michael Bolton - Vintage (2003) {2004, Special Edition}

Michael Bolton - Vintage (2003) {2004, Special Edition}
EAC Rip | FLAC (Img) + Cue + Log ~ 263 Mb | MP3 CBR320 ~ 97 Mb
Full Scans ~ 101 Mb | 00:40:15 | RAR 5% Recovery
Vocal Jazz, Pop, Easy Listening | Universal Music TV #981 797-3

So this is where we find our hero in 2003. Dropped from his major label and absent his trademark flowing golden locks, Vintage presents his fans with yet another set of standout ballads and standards done only the way the Bolton can. Kicking out the jams early on with "The Very Thought of You," the tone is set right away for the album as a perfect musical accompaniment to a romantic dinner. The smooth, sultry tone is brought to a rousing climax with his re-interpretation of Etta James' classic "At Last." The fun continues onward with "Daddy's Little Girl," which was featured prominently in an ad campaign. Vintage closes with the potent but loaded question of "What Are You Doing the Rest of Your Life?," a stunning finish to an album sure to appease even the most loyal of his fans.

~ Rob Theakston, All Music

***************

Michael Bolton - Vintage (2003) {2004, Special Edition}

Track List:

01. The Very Thought Of You [3:22]
02. All The Way [3:32]
03. A Kiss To Build A Dream On [3:02]
04. If I Could [3:08]
05. At Last [3:38]
06. When I Fall In Love [3:19]
07. You Don't Know Me [3:14]
08. Smile [3:18]
09. Daddy's Little Girl [2:12]
10. Summertime [4:32]
11. What Are You Doing The Rest Of Your Life [3:00]
12. God Bless The Child [3:58]

Exact Audio Copy V1.0 beta 3 from 29. August 2011

Отчёт EAC об извлечении, выполненном 30. марта 2012, 8:06

Michael Bolton / Vintage

Дисковод: Optiarc DVD RW AD-5280S Adapter: 2 ID: 1

Режим чтения : Достоверность
Использование точного потока : Да
Отключение кэша аудио : Да
Использование указателей C2 : Нет

Коррекция смещения при чтении : 48
Способность читать области Lead-in и Lead-out : Нет
Заполнение пропущенных сэмплов тишиной : Да
Удаление блоков с тишиной в начале и конце : Нет
При вычислениях CRC использовались нулевые сэмплы : Да
Интерфейс : Установленный внешний ASPI-интерфейс

Выходной формат : Внутренние WAV-операции
Формат сэмплов : 44.100 Гц; 16 бит; стерео


TOC извлечённого CD

Трек | Старт | Длительность | Начальный сектор | Конечный сектор
––––––––––––––––––––––––––––––––––-
1 | 0:00.00 | 3:21.47 | 0 | 15121
2 | 3:21.47 | 3:32.05 | 15122 | 31026
3 | 6:53.52 | 3:02.15 | 31027 | 44691
4 | 9:55.67 | 3:08.28 | 44692 | 58819
5 | 13:04.20 | 3:37.55 | 58820 | 75149
6 | 16:42.00 | 3:19.17 | 75150 | 90091
7 | 20:01.17 | 3:14.05 | 90092 | 104646
8 | 23:15.22 | 3:17.42 | 104647 | 119463
9 | 26:32.64 | 2:12.33 | 119464 | 129396
10 | 28:45.22 | 4:32.13 | 129397 | 149809
11 | 33:17.35 | 2:59.70 | 149810 | 163304
12 | 36:17.30 | 3:58.02 | 163305 | 181156


Характеристики диапазона извлечения и сообщения об ошибках

Выбранный диапазон

Имя файла C:\rip-flac\Michael Bolton - Vintage.wav

Пиковый уровень 98.8 %
Скорость извлечения 3.7 X
Качество диапазона 100.0 %
CRC теста 61C517FA
CRC копии 61C517FA
Копирование… OK

Ошибок не произошло


AccurateRip: сводка

Трек 1 точность не определена (достоверность 4) [EE29ED51], AccurateRip вернул [D2FA2984] (AR v2)
Трек 2 точность не определена (достоверность 4) [CCF26E96], AccurateRip вернул [EFDCA877] (AR v2)
Трек 3 точность не определена (достоверность 4) [7DD0BCD0], AccurateRip вернул [E4BB34DD] (AR v2)
Трек 4 точность не определена (достоверность 4) [AB3C1BAF], AccurateRip вернул [71D822CC] (AR v2)
Трек 5 точность не определена (достоверность 4) [54A0E197], AccurateRip вернул [06F9D720] (AR v2)
Трек 6 точность не определена (достоверность 4) [C0B0C279], AccurateRip вернул [BB67326C] (AR v2)
Трек 7 точность не определена (достоверность 4) [C2D9F0CE], AccurateRip вернул [8A705F61] (AR v2)
Трек 8 точность не определена (достоверность 4) [D5486C12], AccurateRip вернул [5AF2A105] (AR v2)
Трек 9 точность не определена (достоверность 4) [A97523CF], AccurateRip вернул [11A8322E] (AR v2)
Трек 10 точность не определена (достоверность 4) [DDA667F2], AccurateRip вернул [1F4BB8B1] (AR v2)
Трек 11 точность не определена (достоверность 4) [340507CD], AccurateRip вернул [8C6F18D9] (AR v2)
Трек 12 точность не определена (достоверность 4) [D28D90A0], AccurateRip вернул [938CE7E3] (AR v2)

Ни один трек не прошёл проверки на точность
В вашей базе может быть иной вариант штамповки диска

Конец отчёта

==== Контрольная сумма отчёта BED472B5AA4764697A0785E0BA199892D7971F68534F37F0D931FE4B3C25E632 ====

[CUETools log; Date: 23.02.2017 0:12:55; Version: 2.1.5]
[CTDB TOCID: hoEhYR5DGyG2vonvaRdRwxC1LwU-] found.
Track | CTDB Status
1 | (1/1) Accurately ripped
2 | (1/1) Accurately ripped
3 | (1/1) Accurately ripped
4 | (1/1) Accurately ripped
5 | (1/1) Accurately ripped
6 | (1/1) Accurately ripped
7 | (1/1) Accurately ripped
8 | (1/1) Accurately ripped
9 | (1/1) Accurately ripped
10 | (1/1) Accurately ripped
11 | (1/1) Accurately ripped
12 | (1/1) Accurately ripped
[AccurateRip ID: 0011bdbb-00a581cf-ad096f0c] found.
Track [ CRC | V2 ] Status
01 [fbd7b924|ee29ed51] (00+02/10) Accurately ripped
02 [af57d857|ccf26e96] (00+02/10) Accurately ripped
03 [6cdeb825|7dd0bcd0] (00+02/10) Accurately ripped
04 [1775714c|ab3c1baf] (00+02/10) Accurately ripped
05 [748d7330|54a0e197] (00+02/10) Accurately ripped
06 [421eaa74|c0b0c279] (00+02/10) Accurately ripped
07 [beb277c1|c2d9f0ce] (00+02/10) Accurately ripped
08 [bdfcba85|d5486c12] (00+02/10) Accurately ripped
09 [21ac3b4e|a97523cf] (00+02/10) Accurately ripped
10 [737b6651|dda667f2] (00+02/10) Accurately ripped
11 [c6c04541|340507cd] (00+02/10) Accurately ripped
12 [140d2929|d28d90a0] (00+02/10) Accurately ripped
Offsetted by -664:
01 [d2fa2984] (04/10) Accurately ripped
02 [efdca877] (04/10) Accurately ripped
03 [e4bb34dd] (04/10) Accurately ripped
04 [71d822cc] (04/10) Accurately ripped
05 [06f9d720] (04/10) Accurately ripped
06 [bb67326c] (04/10) Accurately ripped
07 [8a705f61] (04/10) Accurately ripped
08 [5af2a105] (04/10) Accurately ripped
09 [11a8322e] (04/10) Accurately ripped
10 [1f4bb8b1] (04/10) Accurately ripped
11 [8c6f18d9] (04/10) Accurately ripped
12 [938ce7e3] (04/10) Accurately ripped

Track Peak [ CRC32 ] [W/O NULL] [ LOG ]
– 98,8 [61C517FA] [B9DD0A78] CRC32
01 98,8 [5129CBA1] [120D28A9]
02 98,8 [9852451E] [D7A14652]
03 98,8 [CC4701D3] [13D4D9FB]
04 98,8 [BBF43AC1] [C7999EB4]
05 98,8 [F4B9BDF3] [E7E626C7]
06 98,8 [7F3A9600] [C4A8EC4D]
07 98,8 [13F32928] [9DF3B3F3]
08 98,8 [9F23D19D] [66B3BCB1]
09 98,8 [3FC7FE7A] [7BD5F00E]
10 98,8 [8AC8484B] [E94650D4]
11 98,8 [BC07ABDB] [8D2CBA58]
12 98,8 [26798C7A] [4BBE7519]

Michael Bolton - Vintage (2003) {2004, Special Edition}


All thanks go to the original ripper(s) …

>>> Michael Bolton in my Blog <<<

DOWNLOAD: