Subcategories

Michael Burks - Make It Rain (2001)

Posted By: Designol
Michael Burks - Make It Rain (2001)

Michael Burks - Make It Rain (2001)
EAC | FLAC | Image (Cue&Log) ~ 377 Mb | Mp3 (CBR320) ~ 129 Mb | Scans ~ 95 Mb | 00:56:42
Modern Electric Blues, Soul-Blues, Blues-Rock | Label: Alligator | # ALCD 4878

After nearly 20 years as a performer, Michael Burks finally issued this debut disc, and his years of practical blues experience are evident on every track. While some of the guitar pyrotechnics may be more technique than substance, it cannot be denied that this fellow can tear up his ax. He sets the stakes on the muscular opener, "Hit the Ground Running," and maintains the intensity level through moodier tunes like "Beggin' Business." While his vocals are not stellar, he has a rich, gritty quality to his singing that is nicely matched to his guitar playing.

Review by Tim Sheridan, Allmusic.com

Michael Burks - Make It Rain (2001)



Tracklist:

01. Hit The Ground Running (3:28)
02. Got A Way With Women (4:26)
03. Beggin' Business (5:53)
04. What Can A Man Do? (5:17)
05. Mean Old Lady (4:26)
06. Everybody's Got Their Hand Out (4:50)
07. Thank God For Fools (4:14)
08. Make It Rain (7:00)
09. Heartless (4:33)
10. Don't Let It Be A Dream (5:37)
11. Pack It Up (3:50)
12. Voodoo Spell (3:09)


Exact Audio Copy V1.0 beta 6 from 9. April 2015

EAC extraction logfile from 11. April 2018, 15:43

Michael Burks / Make It Rain

Used drive : PLEXTOR DVDR PX-891SA Adapter: 0 ID: 2

Read mode : Secure
Utilize accurate stream : Yes
Defeat audio cache : Yes
Make use of C2 pointers : No

Read offset correction : 6
Overread into Lead-In and Lead-Out : No
Fill up missing offset samples with silence : Yes
Delete leading and trailing silent blocks : No
Null samples used in CRC calculations : Yes
Used interface : Installed external ASPI interface

Used output format : User Defined Encoder
Selected bitrate : 320 kBit/s
Quality : High
Add ID3 tag : No
Command line compressor : C:\Program Files\Exact Audio Copy 1.b6\Exact Audio Copy\Flac\flac.exe
Additional command line options : -V -8 -T "Genre=%genre%" -T "Artist=%artist%" -T "Title=%title%" -T "Album=%albumtitle%" -T "Date=%year%" -T "Tracknumber=%tracknr%" -T "Comment=%comment%" %source%


TOC of the extracted CD

Track | Start | Length | Start sector | End sector
––––––––––––––––––––––––––––-
1 | 0:00.00 | 3:27.67 | 0 | 15591
2 | 3:27.67 | 4:26.30 | 15592 | 35571
3 | 7:54.22 | 5:52.40 | 35572 | 62011
4 | 13:46.62 | 5:16.40 | 62012 | 85751
5 | 19:03.27 | 4:25.48 | 85752 | 105674
6 | 23:29.00 | 4:50.10 | 105675 | 127434
7 | 28:19.10 | 4:14.00 | 127435 | 146484
8 | 32:33.10 | 6:59.70 | 146485 | 177979
9 | 39:33.05 | 4:33.37 | 177980 | 198491
10 | 44:06.42 | 5:36.60 | 198492 | 223751
11 | 49:43.27 | 3:49.55 | 223752 | 240981
12 | 53:33.07 | 3:09.18 | 240982 | 255174


Range status and errors

Selected range

Filename L:\Audio\SWF\CD\Michael Burks\2001. Michael Burks - Make It Rain (2001 Alligator, ALCD 4878, USA)\Michael Burks - Make It Rain.wav

Peak level 98.8 %
Extraction speed 7.9 X
Range quality 99.9 %
Test CRC A359ED33
Copy CRC A359ED33
Copy OK

No errors occurred


AccurateRip summary

Track 1 accurately ripped (confidence 3) [6EB861F0] (AR v2)
Track 2 accurately ripped (confidence 3) [BBD490E1] (AR v2)
Track 3 accurately ripped (confidence 3) [DF1D5E7A] (AR v2)
Track 4 accurately ripped (confidence 3) [278C46A7] (AR v2)
Track 5 accurately ripped (confidence 3) [77D4B1AB] (AR v2)
Track 6 accurately ripped (confidence 3) [EB663100] (AR v2)
Track 7 accurately ripped (confidence 3) [8F2ED192] (AR v2)
Track 8 accurately ripped (confidence 3) [B35B8C8C] (AR v2)
Track 9 accurately ripped (confidence 3) [01003F31] (AR v2)
Track 10 accurately ripped (confidence 3) [6C50B380] (AR v2)
Track 11 accurately ripped (confidence 3) [E752B69F] (AR v2)
Track 12 accurately ripped (confidence 3) [9995D44A] (AR v2)

All tracks accurately ripped

End of status report

–– CUETools DB Plugin V2.1.6

[CTDB TOCID: QCdN_Lhgmrr8Eyznh1AFXRHj_.w-] found
Submit result: QCdN_Lhgmrr8Eyznh1AFXRHj_.w- has been confirmed
Track | CTDB Status
1 | (22/25) Accurately ripped, or (2/25) differs in 3 samples @03:26:46,03:27:12-03:27:15
2 | (22/25) Accurately ripped, or (2/25) differs in 1 samples @04:24:69
3 | (25/25) Accurately ripped
4 | (25/25) Accurately ripped
5 | (22/25) Accurately ripped, or (2/25) differs in 1 samples @04:24:63
6 | (25/25) Accurately ripped
7 | (25/25) Accurately ripped
8 | (25/25) Accurately ripped
9 | (25/25) Accurately ripped
10 | (25/25) Accurately ripped
11 | (25/25) Accurately ripped
12 | (25/25) Accurately ripped


==== Log checksum 884EA833FB465C37C46E5A331F51F93C2640BCB53C17E918EDFD62066753CDC6 ====

foobar2000 1.2 / Dynamic Range Meter 1.1.1
log date: 2018-04-12 03:29:44

––––––––––––––––––––––––––––––––––––––––
Analyzed: Michael Burks / Make It Rain
––––––––––––––––––––––––––––––––––––––––

DR Peak RMS Duration Track
––––––––––––––––––––––––––––––––––––––––
DR8 -0.10 dB -8.64 dB 3:28 01-Hit The Ground Running
DR8 -0.10 dB -9.79 dB 4:26 02-Got A Way With Women
DR8 -0.10 dB -9.47 dB 5:53 03-Beggin' Business
DR9 -0.10 dB -12.32 dB 5:17 04-What Can A Man Do?
DR8 -0.10 dB -9.14 dB 4:26 05-Mean Old Lady
DR9 -0.10 dB -9.84 dB 4:50 06-Everybody's Got Their Hand Out
DR9 -0.10 dB -9.78 dB 4:14 07-Thank God For Fools
DR9 -0.10 dB -10.16 dB 7:00 08-Make It Rain
DR8 -0.10 dB -9.21 dB 4:33 09-Heartless
DR8 -0.10 dB -10.40 dB 5:37 10-Don't Let It Be A Dream
DR8 -0.10 dB -9.43 dB 3:50 11-Pack It Up
DR10 -1.54 dB -13.00 dB 3:09 12-Voodoo Spell
––––––––––––––––––––––––––––––––––––––––

Number of tracks: 12
Official DR value: DR9

Samplerate: 44100 Hz
Channels: 2
Bits per sample: 16
Bitrate: 930 kbps
Codec: FLAC
================================================================================

Michael Burks - Make It Rain (2001)

Michael Burks - Make It Rain (2001)