Subcategories

Michael Tilson Thomas, San Francisco Symphony - Anton Bruckner: Symphony No. 7 in E major (2016) [HDTV 1080i]

Posted By: juanchito
Michael Tilson Thomas, San Francisco Symphony - Anton Bruckner: Symphony No. 7 in E major (2016) [HDTV 1080i]

Michael Tilson Thomas, San Francisco Symphony - Anton Bruckner: Symphony No. 7 in E major (2016)
HDTV 1080i | M2TS | 13.4 Mbps, 1440*1080 (16:9), at 29.970 fps, MPEG Video (Version 2) | 7.11 GB
Audio: 251 Kbps, 48.0 KHz, 2 channels, AAC (ADTS) (Version 2) (LC) | Length: 01:11:41
Genre: Classical


Michael Tilson Thomas (born December 21, 1944) is an American conductor, pianist and composer. He is currently music director of the San Francisco Symphony, and artistic director of The New World Symphony which is an American orchestral academy based in Miami Beach, Florida.

Anton Bruckner's Symphony No. 7 in E major (WAB 107) is one of his best-known symphonies. It was written between 1881 and 1883 and was revised in 1885. It is dedicated to Ludwig II of Bavaria. The premiere, given under Arthur Nikisch and the Gewandhaus Orchestra in the opera house at Leipzig on 30 December 1884, brought Bruckner the greatest success he had known in his life. The symphony is sometimes referred to as the "Lyric", though the appellation is not the composer's own, and is seldom used.

22 Nov 2016, NHK Hall Tokyo

Program
Anton Bruckner - Symphony No. 7 in E major (Haas edition)


Michael Tilson Thomas, San Francisco Symphony - Anton Bruckner: Symphony No. 7 in E major (2016) [HDTV 1080i]

Michael Tilson Thomas, San Francisco Symphony - Anton Bruckner: Symphony No. 7 in E major (2016) [HDTV 1080i]

Michael Tilson Thomas, San Francisco Symphony - Anton Bruckner: Symphony No. 7 in E major (2016) [HDTV 1080i]


General
ID : 1 (0x1)
Complete name : C:\rutracker.org_HD\Bruckner, Symphony No. 7 (Michael Tilson Thomas) 2016.m2ts
Format : BDAV
Format/Info : Blu-ray Video
File size : 7.11 GiB
Duration : 1h 11mn
Overall bit rate mode : Variable
Overall bit rate : 14.2 Mbps
Maximum Overall bit rate : 35.5 Mbps

Video
ID : 4113 (0x1011)
Menu ID : 1 (0x1)
Format : MPEG Video
Format version : Version 2
Format profile : Main@High
Format settings, BVOP : Yes
Format settings, Matrix : Custom
Format settings, GOP : M=3, N=15
Codec ID : 2
Duration : 1h 11mn
Bit rate mode : Variable
Bit rate : 13.4 Mbps
Maximum bit rate : 20.0 Mbps
Width : 1 440 pixels
Height : 1 080 pixels
Display aspect ratio : 16:9
Frame rate : 29.970 fps
Color space : YUV
Chroma subsampling : 4:2:0
Bit depth : 8 bits
Scan type : Interlaced
Scan order : Top Field First
Compression mode : Lossy
Bits/(Pixel*Frame) : 0.287
Time code of first frame : 19:05:54:24
Time code source : Group of pictures header
Stream size : 6.70 GiB (94%)
Color primaries : BT.709
Transfer characteristics : BT.709
Matrix coefficients : BT.709

Audio
ID : 4352 (0x1100)
Menu ID : 1 (0x1)
Format : AAC
Format/Info : Advanced Audio Codec
Format version : Version 2
Format profile : LC
Muxing mode : ADTS
Codec ID : 15
Duration : 1h 11mn
Bit rate mode : Variable
Bit rate : 251 Kbps
Channel(s) : 2 channels
Channel positions : Front: L R
Sampling rate : 48.0 KHz
Compression mode : Lossy
Delay relative to video : -42ms
Stream size : 129 MiB (2%)



Thanks to the original uploader