Subcategories

Michael Nyman - Time Will Pronounce (1993)

Posted By: basa005
Michael Nyman - Time Will Pronounce (1993)

Michael Nyman - Time Will Pronounce (1993)
EAC RIP | APE + CUE + LOG | COVER NO BOOK | RAR FILES (3% recovery) | 336 Mb
Classical | ARGO 440282-2


Time Will Pronounce: The 1992 Commissions is a 1993 album by Michael Nyman, his eighteenth release. Nyman does not perform on the album, but he composed all the music, produced it, and wrote the liner notes. The album contains four compositions, each on a separate track. The album is dedicated to the memory of Tony Simons, "friend, manager, and generous and courageous survivor." The album is named for the second and longest of the four works, the only one featuring a former member of the Michael Nyman Band, Elisabeth Perry.

Tracklist:
1. Self-laudatory hymn of Inanna and her omnipotence
2. Time will pronounce
3. The convertibility of lute strings
4. For John Cage


Exact Audio Copy V1.0 beta 2 from 29. April 2011

EAC extraction logfile from 15. September 2011, 16:08

Michael Nyman / Time Will Pronounce

Used drive : TSSTcorpCDDVDW SE-S204N Adapter: 2 ID: 0

Read mode : Secure
Utilize accurate stream : Yes
Defeat audio cache : Yes
Make use of C2 pointers : No

Read offset correction : 6
Overread into Lead-In and Lead-Out : No
Fill up missing offset samples with silence : Yes
Delete leading and trailing silent blocks : No
Null samples used in CRC calculations : No
Used interface : Native Win32 interface for Win NT & 2000

Used output format : Internal WAV Routines
Sample format : 44.100 Hz; 16 Bit; Stereo


TOC of the extracted CD

Track | Start | Length | Start sector | End sector
––––––––––––––––––––––––––––-
1 | 0:00.32 | 14:03.33 | 32 | 63289
2 | 14:03.65 | 20:39.57 | 63290 | 156271
3 | 34:43.47 | 15:14.65 | 156272 | 224886
4 | 49:58.37 | 14:22.70 | 224887 | 289606


Range status and errors

Selected range

Filename C:\avaxhome\Michael Nyman - Time Will Pronounce.wav

Peak level 100.0 %
Extraction speed 3.3 X
Range quality 100.0 %
Copy CRC 9712970E
Copy OK

No errors occurred


AccurateRip summary

Track 1 accurately ripped (confidence 13) [652593D8] (AR v1)
Track 2 accurately ripped (confidence 12) [0281A764] (AR v1)
Track 3 accurately ripped (confidence 13) [DCC9FC16] (AR v1)
Track 4 accurately ripped (confidence 13) [887E531D] (AR v1)

All tracks accurately ripped

End of status report

==== Log checksum 2BB8B520E08B76B55FEA193341E0C1E46EFF4F039A7A5F657095076FA7152854 ====
megaupload
MU link

password: basa005