Subcategories

Michel Camilo - Rhapsody In Blue (2006) {Telarc} [Repost]

Posted By: tiburon
Michel Camilo - Rhapsody In Blue (2006) {Telarc} [Repost]

Michel Camilo - Rhapsody In Blue (2006) {Telarc}
EAC 0.99pb5 | FLAC Image level 5 | Cue+Log | Full Scans 400dpi | 234MB + 5% Recovery
Genre: Jazz, Classical
Michel Camilo - Rhapsody In Blue (2006) {Telarc} [Repost]

Jazz pianist Michel Camilo, working with the Barcelona Symphony Orchestra under Ernest Martinez Izquierdo, attempts here to make something new out of George Gershwin's heavily recorded Rhapsody in Blue and Concerto in F – broadly speaking, he tries to tie these jazz-classical fusions more closely to their jazz roots. Given the fluency with which Gershwin moved between the worlds of classical music, jazz, and pop, the experiment would seem a worthwhile and interesting one, but the recording, at least for those with the usual ways of performing Gershwin in their ears, is likely to come off as neither fish nor fowl.
Track List
01. Rhapsody In Blue 16:41
Concerto in F
02. Allegro 13:09
03. Adagio - Andante Con Moto 12:56
04. Allegro Agitato 6:28
05. Prelude No.2 6:39

Michel Camilo - piano
Barcelona Symphony Orchestra
Ernest Martinez Izquierdo - conductor

Produced by Elaine Martone


Exact Audio Copy V0.99 prebeta 5 from 4. May 2009

EAC extraction logfile from 1. March 2010, 22:58

Michel Camilo / Rhapsody in Blue

Used drive : ASUS DRW-1608P3S Adapter: 0 ID: 1

Read mode : Secure
Utilize accurate stream : Yes
Defeat audio cache : Yes
Make use of C2 pointers : No

Read offset correction : 48
Overread into Lead-In and Lead-Out : No
Fill up missing offset samples with silence : Yes
Delete leading and trailing silent blocks : No
Null samples used in CRC calculations : Yes
Used interface : Native Win32 interface for Win NT & 2000

Used output format : User Defined Encoder
Selected bitrate : 1024 kBit/s
Quality : High
Add ID3 tag : No
Command line compressor : C:\Program Files\Exact Audio Copy\FLAC\FLAC.EXE
Additional command line options : -5 -V -T "ARTIST=%a" -T "TITLE=%t" -T "ALBUM=%g" -T "DATE=%y" -T "TRACKNUMBER=%n" -T "GENRE=%m" -T "COMMENT=%e" %s -o %d


TOC of the extracted CD

Track | Start | Length | Start sector | End sector
––––––––––––––––––––––––––––-
1 | 0:00.00 | 16:46.41 | 0 | 75490
2 | 16:46.41 | 13:13.13 | 75491 | 134978
3 | 29:59.54 | 12:59.06 | 134979 | 193409
4 | 42:58.60 | 6:32.14 | 193410 | 222823
5 | 49:30.74 | 6:38.68 | 222824 | 252741


Range status and errors

Selected range

Filename C:\extracts\Michel Camilo - Rhapsody in Blue\Michel Camilo - Rhapsody in Blue.wav

Peak level 99.4 %
Range quality 100.0 %
Test CRC 7E5E18C7
Copy CRC 7E5E18C7
Copy OK

No errors occurred


AccurateRip summary

Track 1 accurately ripped (confidence 3) [417016D3]
Track 2 accurately ripped (confidence 3) [D1264138]
Track 3 accurately ripped (confidence 3) [A89D14C2]
Track 4 accurately ripped (confidence 3) [5EED9FF2]
Track 5 accurately ripped (confidence 3) [E37485BD]

All tracks accurately ripped

End of status report


––––––––––––––––––––––––––––––––––––––––
Analyzed: Michel Camilo / Rhapsody In Blue
––––––––––––––––––––––––––––––––––––––––

DR Peak RMS Duration Track
––––––––––––––––––––––––––––––––––––––––
DR15 -0.05 dB -20.27 dB 16:47 01-Rhapsody In Blue
DR15 -0.05 dB -20.08 dB 13:13 02-Concerto In F: Allegro
DR19 -0.06 dB -26.04 dB 12:59 03-Concerto In F: Adagio - Andante con moto
DR15 -0.05 dB -20.09 dB 6:32 04-Concerto In F: Allegro agitato
DR15 -10.75 dB -31.90 dB 6:39 05-Prelude No. 2
––––––––––––––––––––––––––––––––––––––––

Number of tracks: 5
Official DR value: DR16

Samplerate: 44100 Hz
Channels: 2
Bits per sample: 16
Bitrate: 509 kbps
Codec: FLAC
================================================================================

Michel Camilo - Rhapsody In Blue (2006) {Telarc} [Repost]
Michel Camilo - Rhapsody In Blue (2006) {Telarc} [Repost]
Michel Camilo - Rhapsody In Blue (2006) {Telarc} [Repost]


Rip by Oceandrop