Subcategories

Mickey Hart - RAMU (2017)

Posted By: SERTiL
Mickey Hart - RAMU (2017)

Mickey Hart - RAMU
EAC Rip | FLAC (tracks)+cue, log, m3u, front cover | 47:13 min | 285 MB
Label: Verve Label Group | Tracks: 12 | Rls.date: 2017
World, Psychedelic, Rock

Mickey Hart: Random Access Musical Universe (RAMU) takes audiences on a unique journey into the world of Mickey Hart, illuminating the creation of RAMU, featuring collaborations with Zakir Hussain, Sikiru Adepoju, Giovanni Hidalgo, Tank Ball (Tank & the Bangas), Dave Portner (Animal Collective), Michal Menert (Pretty Lights), Oteil Burbridge (Dead & Company), and Steve Kimock. While most albums function as a snapshot of a place and time, RAMU is more like a photo album, containing samples and recordings from around the globe, originating between 1944 and 2017. Mickey¹s life ambition has always been to record and preserve the music of the world using the most innovative and high-quality equipment possible. Through the making of RAMU, that goal has grown to be something more. It¹s about creation through collaboration, through combination, and through inclusion. RAMU acts as a reunion of like-minds, of a musical family torn apart by time, expanding to include the sounds and influences of the modern era.

Tracklist:
01. Auctioneers 02:41
02. Wayward Son 04:08
03. Big Bad Wolf 05:09
04. The Lost Coast 04:25
05. Who Do You Think You Are? 03:54
06. You Remind Me 04:08
07. When The Morning Comes 01:53
08. Jerry 03:39
09. Wine Wine Wine 03:59
10. Nacare 04:58
11. Spreading The News 03:38
12. Time Beyond Reason 04:42

Personnel:
Mickey Hart, drums, percusiion
Bill Kreutzmann, drums
Bob Weir, vocals, guitar
John Mayer, guitar
Oteil Burbridge, bass
Jeff Chimenti, keyboards

Exact Audio Copy V1.1 from 23. June 2015

EAC extraction logfile from 20. November 2017, 11:16

Mickey Hart / Ramu

Used drive : HL-DT-STDVDRAM GT50N Adapter: 1 ID: 0

Read mode : Secure
Utilize accurate stream : Yes
Defeat audio cache : Yes
Make use of C2 pointers : No

Read offset correction : 103
Overread into Lead-In and Lead-Out : No
Fill up missing offset samples with silence : Yes
Delete leading and trailing silent blocks : No
Null samples used in CRC calculations : Yes
Used interface : Native Win32 interface for Win NT & 2000
Gap handling : Appended to previous track

Used output format : User Defined Encoder
Selected bitrate : 1024 kBit/s
Quality : High
Add ID3 tag : No
Command line compressor : C:\Program Files (x86)\Exact Audio Copy\Flac\flac.exe
Additional command line options : -8 -e -V -T "ARTIST=%artist%" -T "TITLE=%title%" -T "ALBUM=%albumtitle%" -T "DATE=%year%" -T "TRACKNUMBER=%tracknr%" -T "GENRE=%genre%" -T "PERFORMER=%albuminterpret%" -T "COMPOSER=%composer%" %haslyrics%–tag-from-file=LYRICS="%lyricsfile%"%haslyrics% -T "ALBUMARTIST=%albumartist%" -T "DISCNUMBER=%cdnumber%" -T "TOTALDISCS=%totalcds%" -T "TOTALTRACKS=%numtracks%" -T "COMMENT=%comment%" %source% -o %dest%


TOC of the extracted CD

Track | Start | Length | Start sector | End sector
––––––––––––––––––––––––––––-
1 | 0:00.00 | 2:41.45 | 0 | 12119
2 | 2:41.45 | 4:08.54 | 12120 | 30773
3 | 6:50.24 | 5:09.17 | 30774 | 53965
4 | 11:59.41 | 4:24.74 | 53966 | 73839
5 | 16:24.40 | 3:54.19 | 73840 | 91408
6 | 20:18.59 | 4:08.18 | 91409 | 110026
7 | 24:27.02 | 1:53.57 | 110027 | 118558
8 | 26:20.59 | 3:39.21 | 118559 | 135004
9 | 30:00.05 | 3:59.16 | 135005 | 152945
10 | 33:59.21 | 4:58.50 | 152946 | 175345
11 | 38:57.71 | 3:38.22 | 175346 | 191717
12 | 42:36.18 | 4:42.30 | 191718 | 212897


Track 1

Filename C:\Rips v2\Mickey Hart - Ramu [B0027530-02] (FLAC)\01 - Auctioneers.wav

Pre-gap length 0:00:02.00

Peak level 99.8 %
Extraction speed 2.2 X
Track quality 100.0 %
Test CRC A7ABF27E
Copy CRC A7ABF27E
Track not present in AccurateRip database
Copy OK

Track 2

Filename C:\Rips v2\Mickey Hart - Ramu [B0027530-02] (FLAC)\02 - Wayward Son (ft. Avey Tare).wav

Peak level 99.8 %
Extraction speed 2.7 X
Track quality 100.0 %
Test CRC 2E9C0821
Copy CRC 2E9C0821
Track not present in AccurateRip database
Copy OK

Track 3

Filename C:\Rips v2\Mickey Hart - Ramu [B0027530-02] (FLAC)\03 - Big Bad Wolf (ft. Tarriona 'Tank' Ball).wav

Peak level 99.8 %
Extraction speed 3.0 X
Track quality 100.0 %
Test CRC 7B088D51
Copy CRC 7B088D51
Track not present in AccurateRip database
Copy OK

Track 4

Filename C:\Rips v2\Mickey Hart - Ramu [B0027530-02] (FLAC)\04 - The Lost Coast.wav

Peak level 99.8 %
Extraction speed 3.1 X
Track quality 100.0 %
Test CRC 54D3EBE8
Copy CRC 54D3EBE8
Track not present in AccurateRip database
Copy OK

Track 5

Filename C:\Rips v2\Mickey Hart - Ramu [B0027530-02] (FLAC)\05 - Who Do You Think You Are (ft. Tarriona 'Tank' Ball).wav

Peak level 99.8 %
Extraction speed 3.2 X
Track quality 100.0 %
Test CRC 7EE196F0
Copy CRC 7EE196F0
Track not present in AccurateRip database
Copy OK

Track 6

Filename C:\Rips v2\Mickey Hart - Ramu [B0027530-02] (FLAC)\06 - You Remind Me (ft. Avey Tare).wav

Peak level 99.8 %
Extraction speed 1.7 X
Track quality 100.0 %
Test CRC 56DE2BD9
Copy CRC 56DE2BD9
Track not present in AccurateRip database
Copy OK

Track 7

Filename C:\Rips v2\Mickey Hart - Ramu [B0027530-02] (FLAC)\07 - When the Morning Comes (ft. Tarriona 'Tank' Ball).wav

Peak level 99.8 %
Extraction speed 1.5 X
Track quality 100.0 %
Test CRC 4235863B
Copy CRC 4235863B
Track not present in AccurateRip database
Copy OK

Track 8

Filename C:\Rips v2\Mickey Hart - Ramu [B0027530-02] (FLAC)\08 - Jerry.wav

Peak level 99.8 %
Extraction speed 2.6 X
Track quality 100.0 %
Test CRC EA5EFFC5
Copy CRC EA5EFFC5
Track not present in AccurateRip database
Copy OK

Track 9

Filename C:\Rips v2\Mickey Hart - Ramu [B0027530-02] (FLAC)\09 - Wine Wine Wine.wav

Peak level 99.8 %
Extraction speed 3.8 X
Track quality 100.0 %
Test CRC 8B926333
Copy CRC 8B926333
Track not present in AccurateRip database
Copy OK

Track 10

Filename C:\Rips v2\Mickey Hart - Ramu [B0027530-02] (FLAC)\10 - Nacare.wav

Peak level 99.8 %
Extraction speed 4.0 X
Track quality 100.0 %
Test CRC 9C9DB481
Copy CRC 9C9DB481
Track not present in AccurateRip database
Copy OK

Track 11

Filename C:\Rips v2\Mickey Hart - Ramu [B0027530-02] (FLAC)\11 - Spreading the News (ft. Tarriona 'Tank' Ball).wav

Peak level 99.8 %
Extraction speed 4.1 X
Track quality 100.0 %
Test CRC DFD78B4D
Copy CRC DFD78B4D
Track not present in AccurateRip database
Copy OK

Track 12

Filename C:\Rips v2\Mickey Hart - Ramu [B0027530-02] (FLAC)\12 - Time Beyond Reason (ft. Avey Tare).wav

Peak level 99.8 %
Extraction speed 4.3 X
Track quality 100.0 %
Test CRC D8C0342F
Copy CRC D8C0342F
Track not present in AccurateRip database
Copy OK


None of the tracks are present in the AccurateRip database

No errors occurred

End of status report

–– CUETools DB Plugin V2.1.6

[CTDB TOCID: vPX4zTQE1YSlgEr5XJGMBXAtiQU-] found
Submit result: vPX4zTQE1YSlgEr5XJGMBXAtiQU- has been confirmed
Track | CTDB Status
1 | (1/1) Accurately ripped
2 | (1/1) Accurately ripped
3 | (1/1) Accurately ripped
4 | (1/1) Accurately ripped
5 | (1/1) Accurately ripped
6 | (1/1) Accurately ripped
7 | (1/1) Accurately ripped
8 | (1/1) Accurately ripped
9 | (1/1) Accurately ripped
10 | (1/1) Accurately ripped
11 | (1/1) Accurately ripped
12 | (1/1) Accurately ripped


==== Log checksum E6CE05B28906628A74B54E6DFEF76341771DE56D15D91CD77DE15CA7F2E789C5 ====


Thanks to the Original customer.