Subcategories

Micky Moody - Electric Journeyman (2009)

Posted By: popsakov
Micky Moody - Electric Journeyman (2009)

Micky Moody - Electric Journeyman (2009)
EAC Rip | FLAC (Img) + Cue + Log ~ 300 Mb | MP3 CBR320 ~ 109 Mb
Scans Included (JPG, 300 dpi) | RAR 5% Recovery
Rock, Blues Rock, Funk, Jazz Fusion | Armadillo Music #ARMD 00028

Micky Moody has worked alongside some of the greatest singers in the business, including Paul Rodgers, David Coverdale, Frankie Miller, Roger Chapman, Eric Burdon, Chris Farlowe and Graham Bonnet. As a studio musician he has recorded for the likes of Meat Loaf, Sheena Easton, Ben E. King, Mike Oldfield, Gerry Rafferty and many more. So it is of some interest that he has written and produced an album of guitar instrumentals. A definite case of "let the fingers do the talking" (or in this case, the singing!) 'Electric Journeyman' features twelve tracks that capture Moody's rock/blues/funk/jazz influences.
Micky Moody - Electric Journeyman (2009)

Guitarist Mick Moody is best known as a member of the inaugural lineup of Whitesnake, though he actually began his career years earlier as a member of Juicy Lucy. After exiting Juicy Lucy, Moody played with Snafu for a few years, as well as on several session gigs, before joining Whitesnake in 1978. When bandleader David Coverdale began tinkering with Whitesnake's lineup in the mid-'80s, Moody resumed his prior career as a session guitarist; he also formed a blues-rock outfit called the Moody & Marsden Band with Whitesnake cohort Bernie Marsden, which released an album titled Never Turn Our Back on the Blues in 1994. Moody and Marsden reunited again in the Whitesnake-affiliated supergroup Company of Snakes in 2000, and Moody released his first solo album, the bluesy I Eat Them for Breakfast, in 2001.
~ Steve Huey, All Music

***************

Micky Moody - Electric Journeyman (2009)

Micky Moody - Electric Journeyman (2009)

Track List:

01. Marcia Rockola [0:03:53.57]
02. Dia Hermoso [0:04:34.02]
03. Chunk O' Funk [0:04:29.64]
04. The Man With The Blue Guitar [0:04:07.65]
05. Galasphere 347 [0:04:31.24]
06. Through The Wormhole [0:00:23.74]
07. Day Of Reckoning [0:04:19.72]
08. Hookerized [0:02:16.60]
09. Dirty Pig Two-Step [0:06:25.61]
10. When Love Sneaks Up On You [0:02:46.57]
11. The Slithero Kid [0:03:24.65]
12. Pax Columba [0:01:09.78]

Exact Audio Copy V0.99 prebeta 4 from 23. January 2008

Отчёт EAC об извлечении, выполненном 8. февраля 2010, 16:26

Micky Moody / Electric Journeyman

Дисковод: PLEXTOR DVDR PX-820A Adapter: 3 ID: 1

Режим чтения : Достоверность
Использование точного потока : Да
Отключение кэша аудио : Да
Использование указателей C2 : Нет

Коррекция смещения при чтении : 48
Способность читать области Lead-in и Lead-out : Нет
Заполнение пропущенных сэмплов тишиной : Да
Удаление блоков с тишиной в начале и конце : Нет
При вычислениях CRC использовались нулевые сэмплы : Да
Интерфейс : Встроенный Win32-интерфейс для Win NT/2000

Выходной формат : Внутренние WAV-операции
Формат сэмплов : 44.100 Гц; 16 бит; стерео


TOC извлечённого CD

Трек | Старт | Длительность | Начальный сектор | Конечный сектор
––––––––––––––––––––––––––––––––––-
1 | 0:00.00 | 3:53.43 | 0 | 17517
2 | 3:53.43 | 4:34.02 | 17518 | 38069
3 | 8:27.45 | 4:29.48 | 38070 | 58292
4 | 12:57.18 | 4:07.49 | 58293 | 76866
5 | 17:04.67 | 4:31.18 | 76867 | 97209
6 | 21:36.10 | 0:23.56 | 97210 | 98990
7 | 21:59.66 | 4:19.54 | 98991 | 118469
8 | 26:19.45 | 2:16.45 | 118470 | 128714
9 | 28:36.15 | 6:25.46 | 128715 | 157635
10 | 35:01.61 | 2:46.43 | 157636 | 170128
11 | 37:48.29 | 3:24.49 | 170129 | 185477
12 | 41:13.03 | 1:09.59 | 185478 | 190711


Характеристики диапазона извлечения и сообщения об ошибках

Выбранный диапазон

Имя файла D:\В раздачу\MICKY MOODY\Micky Moody - Electric Journeyman.wav

Пиковый уровень 100.0 %
Качество диапазона 100.0 %
CRC копии EBF1B4E9
Копирование… OK

Ошибок не произошло


AccurateRip: сводка

Трек 1 нет в базе данных
Трек 2 нет в базе данных
Трек 3 нет в базе данных
Трек 4 нет в базе данных
Трек 5 нет в базе данных
Трек 6 нет в базе данных
Трек 7 нет в базе данных
Трек 8 нет в базе данных
Трек 9 нет в базе данных
Трек 10 нет в базе данных
Трек 11 нет в базе данных
Трек 12 нет в базе данных

Ни одного трека нет в базе AccurateRip

Конец отчёта

foobar2000 1.2.6 / Dynamic Range Meter 1.1.1
log date: 2017-08-16 14:37:20

––––––––––––––––––––––––––––––––––––––––
Analyzed: Micky Moody / Electric Journeyman
––––––––––––––––––––––––––––––––––––––––

DR Peak RMS Duration Track
––––––––––––––––––––––––––––––––––––––––
DR7 0.00 dB -8.04 dB 3:54 01-Marcia Rockola
DR9 0.00 dB -9.64 dB 4:34 02-Dia Hermoso
DR9 0.00 dB -10.57 dB 4:30 03-Chunk O' Funk
DR7 0.00 dB -8.27 dB 4:08 04-The Man With The Blue Guitar
DR9 0.00 dB -9.88 dB 4:31 05-Galasphere 347
DR10 -2.99 dB -16.61 dB 0:24 06-Through The Wormhole
DR8 -0.70 dB -9.97 dB 4:20 07-Day Of Reckoning
DR8 0.00 dB -9.16 dB 2:17 08-Hookerized
DR8 0.00 dB -8.69 dB 6:26 09-Dirty Pig Two-Step
DR8 0.00 dB -8.92 dB 2:47 10-When Love Sneaks Up On You
DR9 0.00 dB -9.50 dB 3:25 11-The Slithero Kid
DR7 0.00 dB -9.36 dB 1:10 12-Pax Columba
––––––––––––––––––––––––––––––––––––––––

Number of tracks: 12
Official DR value: DR8

Samplerate: 44100 Hz
Channels: 2
Bits per sample: 16
Bitrate: 921 kbps
Codec: FLAC
================================================================================

[CUETools log; Date: 16.08.2017 14:37:22; Version: 2.1.5]
[CTDB TOCID: fCnd1aPc3vburoa9URkupQveCdo-] disk not present in database.
[AccurateRip ID: 00146ae9-00bbb65d-9809ee0c] found.
Track [ CRC | V2 ] Status
01 [1e963623|f7a9dfa9] (0+0/1) No match
02 [0e7c94e4|c8ab637b] (0+0/1) No match
03 [615f8671|299a10a1] (0+0/1) No match
04 [152294a5|670b5b92] (0+0/1) No match
05 [d072a3a1|be2071e4] (0+0/1) No match
06 [ec48686e|53a189a6] (0+0/1) No match
07 [19f2fb40|890380b7] (0+0/1) No match
08 [ea7a7626|5560cf3e] (0+0/1) No match
09 [50ce8a1f|2fc74e75] (0+0/1) No match
10 [fecb1d62|b00b3241] (0+0/1) No match
11 [39a355fb|b6e9dc9a] (0+0/1) No match
12 [9ea998ff|26a67c6a] (0+0/1) No match
Offsetted by 30:
01 [bdaf1aa7] (0/1) No match (V2 was not tested)
02 [fbee1352] (0/1) No match (V2 was not tested)
03 [284d2044] (0/1) No match (V2 was not tested)
04 [bffffa70] (0/1) No match (V2 was not tested)
05 [4fcbbe4f] (0/1) No match (V2 was not tested)
06 [cfedaba5] (0/1) No match (V2 was not tested)
07 [e181b90d] (0/1) No match (V2 was not tested)
08 [9a1170ca] (0/1) No match (V2 was not tested)
09 [9bd6732f] (0/1) No match (V2 was not tested)
10 [c004370d] (0/1) No match (V2 was not tested)
11 [3bde93bd] (0/1) No match (V2 was not tested)
12 [5d6e760e] (0/1) No match (V2 was not tested)

Track Peak [ CRC32 ] [W/O NULL] [ LOG ]
– 100,0 [EBF1B4E9] [9683751B] CRC32
01 99,9 [112B7347] [14F01B0E]
02 100,0 [86DE9116] [22C0D707]
03 99,9 [39B516C9] [453F2A2E]
04 99,9 [8306A1B1] [91E97247]
05 99,9 [C394CC36] [9999F6EF]
06 70,8 [36F1F2FF] [A2561A54]
07 92,2 [43B9508A] [636B67C0]
08 99,9 [6E1F38A0] [B63483A3]
09 100,0 [09E490EE] [43FB9714]
10 99,9 [FB553A18] [D208791B]
11 99,9 [0AC927E6] [069FBC17]
12 99,9 [2FA727FF] [6561C362]

Micky Moody - Electric Journeyman (2009)

All thanks go to ЗУБ2007

>>> My Blog <<<

Download from icerbox.com: