Subcategories

Midori, Christoph Eschenbach - Hindemith: Symphonic Metamorphosis, Violin Concerto, Concert Music, Op.50 (2013)

Posted By: tirexiss
Midori, Christoph Eschenbach - Hindemith: Symphonic Metamorphosis, Violin Concerto, Concert Music, Op.50 (2013)

Midori, Christoph Eschenbach - Hindemith: Symphonic Metamorphosis, Violin Concerto, Concert Music, Op.50 (2013)
EAC | FLAC (image+.cue, log) | Covers Included | 67:23 | 303 MB
Genre: Classical | Label: Ondine | Catalog: ODE 1214-2

German composer Paul Hindemith wrote concertos for nearly every instrument in the orchestra. Here you get a concert for one of the most common instruments, the violin, along with two distinctively textured orchestral works, the giant Symphonic Metamorphosis of Themes by C.M. von Weber and the somewhat obscure Konzertmusik für Streichorchester und Blechbläser (Concert Music for Strings and Brass Instruments), the earliest piece on the program (it was written in 1930). All three works rely on Hindemith's serious, intricate large-scale craftsmanship, combined with the sense of instrumental writing implied by the variety of textures found in his concertos and orchestral works as a whole. The combination, which replicates that of a Chandos release with violinist Leonidas Kavakos, might make a good introduction to Hindemith. The Violin Concerto of 1939 is the standout here. Midori, with her precise, rather wiry tone and unflagging energy in the long line, is an ideal interpreter for the concerto, which is not a soloist-vs.-orchestra contest but a detailed exploration of the sounds the violin makes in combination with various groupings within the large orchestra. The Symphonic Metamorphosis have received more crackling performances than they get here from the NDR Symphony uner Christoph Eschenbach, but there is little to object to in the orchestra's performance of this difficult score, and the two-movement Konzertmusik, something of a study in strings and brass, is cleanly done. Worth the investment, especially for Midori fans; this is not her most crowd-pleasing performance, but it is indeed one of her best. – James Manheim

Midori, Christoph Eschenbach - Hindemith: Symphonic Metamorphosis, Violin Concerto, Concert Music, Op.50 (2013)

Track List:

Paul Hindemith (1895–1963)

[1]-[4] Symphonic Metamorphosis of Themes by C.M. von Weber (1943)
[5]-[7] Concerto for Violin and Orchestra (1939)
[8]-[9] Concert Music for String Orchestra and Brass Instruments, Op.50 (1930)

Performers:
Midori, violin
NDR Sinfonieorchester
Christoph Eschenbach, conductor

Exact Audio Copy V1.3 from 2. September 2016

EAC extraction logfile from 12. November 2017, 11:53

Midori, NDR Sinfonieorchester, Christoph Eschenbach / Hindemith - Violinkonzert; Symphonic Metamorphosis; Konzertmusik Op.50

Used drive : PLDS DVD-RW DU8A6SH Adapter: 1 ID: 0

Read mode : Secure
Utilize accurate stream : Yes
Defeat audio cache : Yes
Make use of C2 pointers : No

Read offset correction : 6
Overread into Lead-In and Lead-Out : No
Fill up missing offset samples with silence : Yes
Delete leading and trailing silent blocks : No
Null samples used in CRC calculations : Yes
Used interface : Native Win32 interface for Win NT & 2000

Used output format : User Defined Encoder
Selected bitrate : 128 kBit/s
Quality : High
Add ID3 tag : No
Command line compressor : C:\Program Files (x86)\Exact Audio Copy\Flac\flac.exe
Additional command line options : -V -8 -T "Date=%year%" -T "Genre=%genre%" %source%


TOC of the extracted CD

Track | Start | Length | Start sector | End sector
––––––––––––––––––––––––––––-
1 | 0:00.00 | 3:48.10 | 0 | 17109
2 | 3:48.10 | 8:03.27 | 17110 | 53361
3 | 11:51.37 | 4:13.25 | 53362 | 72361
4 | 16:04.62 | 4:36.48 | 72362 | 93109
5 | 20:41.35 | 9:00.69 | 93110 | 133678
6 | 29:42.29 | 10:02.51 | 133679 | 178879
7 | 39:45.05 | 10:28.65 | 178880 | 226044
8 | 50:13.70 | 8:44.04 | 226045 | 265348
9 | 58:57.74 | 8:41.16 | 265349 | 304439


Range status and errors

Selected range

Filename C:\temp\Hindemith - Violinkonzert; Symphonic Metamorphosis; Konzertmusik Op.50\Hindemith - Violinkonzert; Symphonic Metamorphosis; Konzertmusik Op.50.wav

Peak level 99.8 %
Extraction speed 4.0 X
Range quality 100.0 %
Test CRC DA11FB69
Copy CRC DA11FB69
Copy OK

No errors occurred


AccurateRip summary

Track 1 accurately ripped (confidence 15) [CC1DEFAB] (AR v2)
Track 2 accurately ripped (confidence 15) [7CFBF4FC] (AR v2)
Track 3 accurately ripped (confidence 15) [003E276C] (AR v2)
Track 4 accurately ripped (confidence 15) [924F8DD9] (AR v2)
Track 5 accurately ripped (confidence 15) [EF95CAC3] (AR v2)
Track 6 accurately ripped (confidence 15) [431B9439] (AR v2)
Track 7 accurately ripped (confidence 15) [C894E29E] (AR v2)
Track 8 accurately ripped (confidence 15) [3212F47D] (AR v2)
Track 9 accurately ripped (confidence 15) [B7C1A8AC] (AR v2)

All tracks accurately ripped

End of status report

==== Log checksum 111477FCF6ACBB152374D405F598301DC1208FFB0929E468787AED9054BC2C51 ====

[CUETools log; Date: 20.11.2017 17:22:59; Version: 2.1.5]
[CTDB TOCID: P.IsRCjT7kT761MHqFfZRrmAp7s-] found.
Track | CTDB Status
1 | (38/38) Accurately ripped
2 | (38/38) Accurately ripped
3 | (38/38) Accurately ripped
4 | (38/38) Accurately ripped
5 | (38/38) Accurately ripped
6 | (38/38) Accurately ripped
7 | (38/38) Accurately ripped
8 | (38/38) Accurately ripped
9 | (38/38) Accurately ripped
[AccurateRip ID: 00148351-009c5158-760fdb09] found.
Track [ CRC | V2 ] Status
01 [0ee70351|cc1defab] (00+15/15) Accurately ripped
02 [b1ec4a92|7cfbf4fc] (00+15/15) Accurately ripped
03 [e467ae10|003e276c] (00+15/15) Accurately ripped
04 [b50bdc1e|924f8dd9] (00+15/15) Accurately ripped
05 [0a2bf148|ef95cac3] (00+15/15) Accurately ripped
06 [345527a8|431b9439] (00+15/15) Accurately ripped
07 [e72082c0|c894e29e] (00+15/15) Accurately ripped
08 [fd90c6cd|3212f47d] (00+15/15) Accurately ripped
09 [6bc43838|b7c1a8ac] (00+15/15) Accurately ripped

Track Peak [ CRC32 ] [W/O NULL] [ LOG ]
– 99,8 [DA11FB69] [B405205C] CRC32
01 99,8 [A265A8A6] [3D2BA48B]
02 98,0 [A5519A48] [3718227F]
03 38,2 [7FED9603] [16615890]
04 99,2 [3DFFFC77] [F41BA37D]
05 99,8 [9D2A6ABF] [7901123D]
06 94,4 [FBFC0114] [A1302F59]
07 96,1 [3A8DB0AB] [4320D5E9]
08 74,6 [A6DDB939] [D7219327]
09 85,9 [3B8638B2] [EDBB9999]

Thanks to the Original ripper A-Z!

Download: