Subcategories

Mighty Diamonds - Ice On Fire [1977] (2000)

Posted By: mook45
Mighty Diamonds - Ice On Fire [1977] (2000)

Mighty Diamonds - Ice On Fire [1977] (2000)
EAC | FLAC IMG,CUE+LOG = 282MB | MP3@320 = 98MB | 400 dpi Scans
Reggae| Label: Virgin - CDFL11 | FSo/FSe


Sweet Sam Cooke style RnB influenced reggae classic with great Allen Toussaint and Robert Palmer covers.

Tracklisting
1. Country Living
2. You Are Just A Song
3. If I Should Leave You
4. Tonight
5. Comin Through
6. Get Out Of My Life Woman
7. Sneakin Sally Through The Alley
8. Little Angel
9. Cat O Nine
10. Back Weh Mafia
11. Whole Wide World
12. Tracks Of My Tears

Exact Audio Copy V0.99 prebeta 5 from 4. May 2009

EAC extraction logfile from 6. November 2009, 0:12

Mighty Diamonds / Ice on Fire

Used drive : HP DVD Writer 1040r Adapter: 1 ID: 0

Read mode : Secure
Utilize accurate stream : Yes
Defeat audio cache : Yes
Make use of C2 pointers : No

Read offset correction : 6
Overread into Lead-In and Lead-Out : No
Fill up missing offset samples with silence : Yes
Delete leading and trailing silent blocks : No
Null samples used in CRC calculations : Yes
Used interface : Native Win32 interface for Win NT & 2000

Used output format : User Defined Encoder
Selected bitrate : 1024 kBit/s
Quality : High
Add ID3 tag : No
Command line compressor : C:\Program Files\Exact Audio Copy\FLAC\FLAC.EXE
Additional command line options : -5 -V -T "ARTIST=%a" -T "TITLE=%t" -T "ALBUM=%g" -T "DATE=%y" -T "TRACKNUMBER=%n" -T "GENRE=%m" -T "COMMENT=EAC Flac 1.1.2 -5" %s


TOC of the extracted CD

Track | Start | Length | Start sector | End sector
––––––––––––––––––––––––––––-
1 | 0:00.00 | 3:39.30 | 0 | 16454
2 | 3:39.30 | 2:49.10 | 16455 | 29139
3 | 6:28.40 | 3:44.57 | 29140 | 45996
4 | 10:13.22 | 4:22.50 | 45997 | 65696
5 | 14:35.72 | 2:53.35 | 65697 | 78706
6 | 17:29.32 | 3:14.25 | 78707 | 93281
7 | 20:43.57 | 2:50.68 | 93282 | 106099
8 | 23:34.50 | 3:14.60 | 106100 | 120709
9 | 26:49.35 | 3:48.65 | 120710 | 137874
10 | 30:38.25 | 3:37.32 | 137875 | 154181
11 | 34:15.57 | 3:38.65 | 154182 | 170596
12 | 37:54.47 | 3:07.40 | 170597 | 184661


Range status and errors

Selected range

Filename C:\Users\Mike3\Desktop\Mighty Diamonds - Ice on Fire (Flac)\Mighty Diamonds - Ice on Fire.wav

Peak level 99.8 %
Range quality 100.0 %
Copy CRC E52A333E
Copy OK

No errors occurred


AccurateRip summary

Track 1 not present in database
Track 2 not present in database
Track 3 not present in database
Track 4 not present in database
Track 5 not present in database
Track 6 not present in database
Track 7 not present in database
Track 8 not present in database
Track 9 not present in database
Track 10 not present in database
Track 11 not present in database
Track 12 not present in database

None of the tracks are present in the AccurateRip database

End of status report

Files
Lame 320 Kbps = 98MB
Flac 949 Kbps = 282MB

320

http://www.filesonic.com/file/39208117/MD.IoF_320_.rar

Flac

http://www.filesonic.com/file/39208307/MD.IoF_Flac_.part1.rar
http://www.filesonic.com/file/39208113/MD.IoF_Flac_.part2.rar

320

http://www.fileserve.com/file/jGFT4w3/MD.IoF_320_.rar

Flac

http://www.fileserve.com/file/m6nvgWY/MD.IoF_Flac_.part1.rar
http://www.fileserve.com/file/vJ2rT98/MD.IoF_Flac_.part2.rar

No mirrors