Miles Davis - On The Corner (1972) [MFSL Remastered 2016]

Posted By: Designol
Miles Davis - On The Corner (1972) [MFSL Remastered 2016]

Miles Davis - On The Corner (1972) [MFSL Remastered 2016]
EAC | FLAC | Tracks (Cue&Log) ~ 369 Mb | Mp3 (CBR320) ~ 138 Mb | Scans included | 00:54:55
Fusion, Jazz-Funk, Jazz-Rock | Label: Mobile Fidelity Sound Lab | # UDSACD 2171

On the Corner is a studio album by American jazz trumpeter, composer, and bandleader Miles Davis. It was recorded in June and July 1972, and released later that year by Columbia Records. The album continued Davis' exploration of jazz fusion, bringing together funk rhythms with the influence of experimental composer Karlheinz Stockhausen and free jazz saxophonist Ornette Coleman. Recording sessions for the album featured a changing lineup of musicians including bassist Michael Henderson, guitarist John McLaughlin, and keyboardist Herbie Hancock, with Davis playing the electric organ more prominently than his trumpet.

Could there be any more confrontational sound in Miles Davis' vast catalog than the distorted guitars and tinny double-timing drums reacting to a two-note bass riff funking it up on the first track from On the Corner? Before the trumpet even enters the story has been broken off in the middle – deep street music melding with a secret language exchanged by the band and those who can actually hear it as music. Here are killer groove riffs that barely hold on as bleating trumpet and soprano sax lines (courtesy of Dave Liebman on track one) interact with John McLaughlin's distortion-box frenzy. Michael Henderson's bass keeps the basic so basic it hypnotizes; keyboards slowly enter the picture, a pair of them handled by Herbie Hancock and Chick Corea, as well as Ivory Williams' synthesizer. Finally, Colin Walcott jumps in with an electric sitar and there are no less than five drummers – three kits (Al Foster, Billy Hart, and Jack DeJohnette), a tabla player, and Mtume. It's a four-tune suite, On the Corner is, but the separations hardly matter, just the shifts in groove that alter the time/space continuum. After 20 minutes, the set feels over and a form of Miles' strange lyricism returns in "Black Satin." Though a tabla kicks the tune off, there's a recognizable eight-note melody that runs throughout. Carlos Garnett and Bennie Maupin replace Liebman, Dave Creamer replaces McLaughlin, and the groove rides a bit easier – except for those hand bells shimmering in the background off the beat just enough to make the squares crazy. The respite is short-lived, however. Davis and band move the music way over to the funk side of the street – though the street funkers thought these cats were too weird with their stranded time signatures and modal fugues that begin and end nowhere and live for the way the riff breaks down into emptiness. "One and One" begins the new tale, so jazz breaks down and gets polished off and resurrected as a far blacker, deeper-than-blue character in the form of "Helen Butte/Mr. Freedom X," where guitars and horns careen off Henderson's cracking bass and Foster's skittering hi-hats. It may sound weird even today, but On the Corner is the most street record ever recorded by a jazz musician. And it still kicks.

Review by Thom Jurek, Allmusic.com

Miles Davis - On The Corner (1972) [MFSL Remastered 2016]



Miles Davis – electric trumpet, organ
Dave Liebman – soprano saxophone
Carlos Garnett – soprano and tenor saxophone
Chick Corea – electric piano
Herbie Hancock – electric piano, synthesizer
Harold I. Williams – organ, synthesizer
David Creamer , John McLaughlin – electric guitar
Michael Henderson – electric bass
Collin Walcott , Khalil Balakrishna – electric sitar
Bennie Maupin – bass clarinet
Badal Roy – tabla
Jack DeJohnette– drums
Jabali Billy Hart – drums, bongos
James "Mtume" Foreman, Don Alias – percussion
Paul Buckmaster – cello, arrangements


Tracklist:

01. On the Corner/New York Girl/
Thinkin' One Thing and Doin' Another/Vote for Miles (20:01)
02. Black Satin (5:21)
03. One and One (6:08)
04. Helen Butte/Mr. Freedom X (23:25)


Exact Audio Copy V1.3 from 2. September 2016

EAC extraction logfile from 17. July 2017, 15:52

Miles Davis / On The Corner (2016 MFSL)

Used drive : PLEXTOR CD-R PREMIUM Adapter: 1 ID: 1

Read mode : Secure
Utilize accurate stream : Yes
Defeat audio cache : Yes
Make use of C2 pointers : No

Read offset correction : 30
Overread into Lead-In and Lead-Out : No
Fill up missing offset samples with silence : Yes
Delete leading and trailing silent blocks : No
Null samples used in CRC calculations : Yes
Used interface : Native Win32 interface for Win NT & 2000
Gap handling : Appended to previous track

Used output format : User Defined Encoder
Selected bitrate : 768 kBit/s
Quality : High
Add ID3 tag : No
Command line compressor : C:\Program Files (x86)\Exact Audio Copy\FLAC\FLAC.EXE
Additional command line options : -6 -e -p -V -T "ARTIST=%artist%" -T "TITLE=%title%" -T "ALBUM=%albumtitle%" -T "DATE=%year%" -T "TRACKNUMBER=%tracknr%" -T "GENRE=%genre%" -T "PERFORMER=%albuminterpret%" -T "COMPOSER=%composer%" %haslyrics%–tag-from-file=LYRICS="%lyricsfile%"%haslyrics% -T "ALBUMARTIST=%albumartist%" -T "DISCNUMBER=%cdnumber%" -T "TOTALDISCS=%totalcds%" -T "TOTALTRACKS=%numtracks%" -T "COMMENT=%comment%" %source% -o %dest%


TOC of the extracted CD

Track | Start | Length | Start sector | End sector
––––––––––––––––––––––––––––-
1 | 0:00.00 | 20:00.47 | 0 | 90046
2 | 20:00.47 | 5:20.70 | 90047 | 114116
3 | 25:21.42 | 6:08.31 | 114117 | 141747
4 | 31:29.73 | 23:24.63 | 141748 | 247110


Track 1

Filename C:\tmp\00_RIPS\01 - On The Corner - New York Girl - Thinkin of One Thing and Doin' Another - Vote for Miles.wav

Pre-gap length 0:00:02.00

Peak level 96.1 %
Extraction speed 10.6 X
Track quality 100.0 %
Test CRC 16CD3E61
Copy CRC 16CD3E61
Accurately ripped (confidence 6) [64D67FBB] (AR v2)
Copy OK

Track 2

Filename C:\tmp\00_RIPS\02 - Black Satin.wav

Pre-gap length 0:00:02.73

Peak level 89.3 %
Extraction speed 12.5 X
Track quality 100.0 %
Test CRC 1BFE2D08
Copy CRC 1BFE2D08
Accurately ripped (confidence 6) [07AA665C] (AR v2)
Copy OK

Track 3

Filename C:\tmp\00_RIPS\03 - One and One.wav

Pre-gap length 0:00:04.77

Peak level 93.9 %
Extraction speed 13.5 X
Track quality 100.0 %
Test CRC 878C943D
Copy CRC 878C943D
Accurately ripped (confidence 6) [F1C042C3] (AR v2)
Copy OK

Track 4

Filename C:\tmp\00_RIPS\04 - Helen Butte - Mr Freedom X.wav

Peak level 83.8 %
Extraction speed 15.4 X
Track quality 100.0 %
Test CRC 96AA53E1
Copy CRC 96AA53E1
Accurately ripped (confidence 6) [F79D6C02] (AR v2)
Copy OK


All tracks accurately ripped

No errors occurred

End of status report

–– CUETools DB Plugin V2.1.6

[CTDB TOCID: OJwzkmox028WMHaKYk99YODEOw0-] found
Submit result: OJwzkmox028WMHaKYk99YODEOw0- has been confirmed
Track | CTDB Status
1 | (12/12) Accurately ripped
2 | (12/12) Accurately ripped
3 | (12/12) Accurately ripped
4 | (11/12) Accurately ripped


==== Log checksum 51C0016A529195802CA861D99DC1048BCDDC3A267D7BB2CF4F6796A4B9597D62 ====

foobar2000 1.2 / Dynamic Range Meter 1.1.1
log date: 2017-07-21 17:30:18

––––––––––––––––––––––––––––––––––––––––
Analyzed: Miles Davis / On the Corner
––––––––––––––––––––––––––––––––––––––––

DR Peak RMS Duration Track
––––––––––––––––––––––––––––––––––––––––
DR11 -0.34 dB -13.48 dB 20:01 01-On the Corner/New York Girl/Thinkin' One Thing and Doin' Another/Vote for Miles
DR12 -0.98 dB -15.46 dB 5:21 02-Black Satin
DR13 -0.54 dB -14.98 dB 6:08 03-One and One
DR11 -1.53 dB -14.73 dB 23:25 04-Helen Butte/Mr. Freedom X
––––––––––––––––––––––––––––––––––––––––

Number of tracks: 4
Official DR value: DR12

Samplerate: 44100 Hz
Channels: 2
Bits per sample: 16
Bitrate: 933 kbps
Codec: FLAC
================================================================================

Miles Davis - On The Corner (1972) [MFSL Remastered 2016]

Miles Davis - On The Corner (1972) [MFSL Remastered 2016]