Subcategories

Miles Davis - The Columbia Years 1955-1985 (CD.2 of 4)

Posted By: Oceandrop
Miles Davis - The Columbia Years 1955-1985 (CD.2 of 4)

Miles Davis - The Columbia Years 1955-1985 (CD.2 of 4)

Miles Davis - The Columbia Years 1955-1985 (CD.2 of 4)
Jazz | EAC | FLAC (Compressed CD Image, Level=5), CUE, LOG, Rapidshare, 5 parts, 431 MB. total
No Scans (Will be posted with the 4th CD)
WinRar Archive with 5% recovery record included
Audio CD (August 28, 2001), Label: Sony, Original Release Date: 1998, 4-CD Boxset

35 tracks in 4 CD's, from great Miles Davis; with Cannonball Adderley, Gary Bartz, Harvey Brooks, Ron Carter,
Paul Chambers, Kenny Clarke, Jimmy Cobb, Billy Cobham, George Coleman, John Coltrane, Chick Corea,
Jack DeJohnette, Bill Evans, Gil Evans Orchestra, Victor Feldman, Al Foster, Red Garland, Herbie Hancock,
Dave Holland, Keith Jarrett, Elvin Jones,Philly Joe Jones, Wynton Kelly, Dave Liebman, John McLaughlin,
Marcus Miller, Hank Mobley, Airto Moreira, John Scofield, Wayne Shorter, Mike Stern, Colin Walcott, Lenny White,
Tony Williams, Joe Zawinul, and others…

Produced and Compiled by, Jeff Rosen.

Tracklist, CD.2 of 4:
01. Bye bye Blackbird
02. My Funny Valentine
03. Love for Sale
04. Budo
05. Miles
06. Filles de Kilimanjaro
07. Fran-Dance
08. Seven Steps to Heaven

Exact Audio Copy V0.99 prebeta 5 from 4. May 2009

EAC extraction logfile from 18. February 2010, 13:32

Miles Davis / The Columbia Years '55-'85, CD.2 of 4

Used drive : ASUS DRW-1608P3S Adapter: 0 ID: 1

Read mode : Secure
Utilize accurate stream : Yes
Defeat audio cache : Yes
Make use of C2 pointers : No

Read offset correction : 48
Overread into Lead-In and Lead-Out : No
Fill up missing offset samples with silence : Yes
Delete leading and trailing silent blocks : No
Null samples used in CRC calculations : Yes
Used interface : Native Win32 interface for Win NT & 2000

Used output format : User Defined Encoder
Selected bitrate : 1024 kBit/s
Quality : High
Add ID3 tag : No
Command line compressor : C:\Program Files\Exact Audio Copy\FLAC\FLAC.EXE
Additional command line options : -5 -V -T "ARTIST=%a" -T "TITLE=%t" -T "ALBUM=%g" -T "DATE=%y" -T "TRACKNUMBER=%n" -T "GENRE=%m" -T "COMMENT=%e" %s -o %d


TOC of the extracted CD

Track | Start | Length | Start sector | End sector
––––––––––––––––––––––––––––-
1 | 0:00.00 | 7:57.32 | 0 | 35806
2 | 7:57.32 | 14:55.68 | 35807 | 102999
3 | 22:53.25 | 11:51.20 | 103000 | 156344
4 | 34:44.45 | 5:03.55 | 156345 | 179124
5 | 39:48.25 | 5:45.20 | 179125 | 205019
6 | 45:33.45 | 12:03.45 | 205020 | 259289
7 | 57:37.15 | 5:50.35 | 259290 | 285574
8 | 63:27.50 | 6:23.67 | 285575 | 314366


Range status and errors

Selected range

Filename C:\extracts\Miles Davis - The Columbia Years '55-'85, CD.2 of 4\Miles Davis - The Columbia Years '55-'85, CD.2 of 4.wav

Peak level 100.0 %
Range quality 100.0 %
Test CRC 0E04B42B
Copy CRC 0E04B42B
Copy OK

No errors occurred


AccurateRip summary

Track 1 accurately ripped (confidence 3) [BEDFF947]
Track 2 accurately ripped (confidence 3) [59603972]
Track 3 accurately ripped (confidence 3) [C6237FE9]
Track 4 accurately ripped (confidence 3) [4613D774]
Track 5 accurately ripped (confidence 3) [2DCA9540]
Track 6 accurately ripped (confidence 3) [6BDBB7D1]
Track 7 accurately ripped (confidence 3) [9C8851E6]
Track 8 accurately ripped (confidence 3) [CCFAB670]

All tracks accurately ripped

End of status report

RapidShare Downloads:
FLAC (Compressed CD Image, Level=5), 5 parts; 431 MB. total
http://rapidshare.com/files/352335076/MDCY5585D2FC.part1.rar
http://rapidshare.com/files/352343153/MDCY5585D2FC.part2.rar
http://rapidshare.com/files/352350631/MDCY5585D2FC.part3.rar
http://rapidshare.com/files/352358041/MDCY5585D2FC.part4.rar
http://rapidshare.com/files/352362036/MDCY5585D2FC.part5.rar

Password: www.AvaxHome.ru