Subcategories

Milk & Bone - Deception Bay (2018)

Posted By: SERTiL
Milk & Bone - Deception Bay (2018)

Milk & Bone - Deception Bay (2018)
EAC Rip | FLAC (tracks)+cue, log, m3u, front cover | 277 MB
Label: Bonsound Records ‎– BONAL058-CD | Tracks: 14 | Time: 47:29 min
Indie Pop

As Milk & Bone, Camille Poliquin and Laurence Lafond-Beaulne possess a rarefied ability to reconstruct your innermost sentiments out of an array of synths, drums, programming and voice, all while keeping the deepest layers intact and affecting.

If Milk & Bone's 2015 debut, Little Mourning, offered cool reflections on hot and cold relationships, the duo don't stray too far from that subject matter here. But what Deception Bay offers is an amplification of their strengths: from dreamy reflections to post-relationship reckonings, the duo seem bolder, more playful, and more attuned to the nuances of their subject matter than ever. They've expanded in scope — Deception Bay trumps Little Mourning's eight tracks with 14 — and the extra room lets them mine even richer emotional territory.

"Daydream" drifts along with the compulsive pull of its namesake state of mind. "KIDS" is a fond shoulder-check on a love that didn't last ("Yeah it's cool, it was fun, we were clueless"). The title track is an absolute standout, and the rest take varied directions on matters of the heart. But on Deception Bay, Milk & Bone always manage to reveal something deep or cathartic beneath whatever situation they find themselves surveying.



Tracklist:
01. Set in Stone (05:12)
02. Daydream (03:48)
03. KIDS (03:12)
04. Care (02:53)
05. Nevermore (03:35)
06. Sad Eyes (03:48)
07. Tmrw. (04:48)
08. interlude I (01:21)
09. THE FLOOD (03:32)
10. interlude II (00:32)
11. Deception Bay (03:34)
12. Faded (04:32)
13. BBBLUE (04:17)
14. ') (02:26)

Exact Audio Copy V1.1 from 23. June 2015

EAC extraction logfile from 9. February 2018, 10:32

Milk & Bone / Deception Bay

Used drive : HL-DT-STDVDRAM GT50N Adapter: 1 ID: 0

Read mode : Secure
Utilize accurate stream : Yes
Defeat audio cache : Yes
Make use of C2 pointers : No

Read offset correction : 103
Overread into Lead-In and Lead-Out : No
Fill up missing offset samples with silence : Yes
Delete leading and trailing silent blocks : No
Null samples used in CRC calculations : Yes
Used interface : Native Win32 interface for Win NT & 2000
Gap handling : Appended to previous track

Used output format : User Defined Encoder
Selected bitrate : 1024 kBit/s
Quality : High
Add ID3 tag : No
Command line compressor : C:\Program Files (x86)\Exact Audio Copy\Flac\flac.exe
Additional command line options : -8 -e -V -T "ARTIST=%artist%" -T "TITLE=%title%" -T "ALBUM=%albumtitle%" -T "DATE=%year%" -T "TRACKNUMBER=%tracknr%" -T "GENRE=%genre%" -T "PERFORMER=%albuminterpret%" -T "COMPOSER=%composer%" %haslyrics%–tag-from-file=LYRICS="%lyricsfile%"%haslyrics% -T "ALBUMARTIST=%albumartist%" -T "DISCNUMBER=%cdnumber%" -T "TOTALDISCS=%totalcds%" -T "TOTALTRACKS=%numtracks%" -T "COMMENT=%comment%" %source% -o %dest%


TOC of the extracted CD

Track | Start | Length | Start sector | End sector
––––––––––––––––––––––––––––-
1 | 0:00.00 | 5:12.53 | 0 | 23452
2 | 5:12.53 | 3:48.63 | 23453 | 40615
3 | 9:01.41 | 3:12.53 | 40616 | 55068
4 | 12:14.19 | 2:53.24 | 55069 | 68067
5 | 15:07.43 | 3:35.63 | 68068 | 84255
6 | 18:43.31 | 3:48.34 | 84256 | 101389
7 | 22:31.65 | 4:48.63 | 101390 | 123052
8 | 27:20.53 | 1:21.20 | 123053 | 129147
9 | 28:41.73 | 3:31.71 | 129148 | 145043
10 | 32:13.69 | 0:32.54 | 145044 | 147497
11 | 32:46.48 | 3:34.30 | 147498 | 163577
12 | 36:21.03 | 4:32.16 | 163578 | 183993
13 | 40:53.19 | 4:17.57 | 183994 | 203325
14 | 45:11.01 | 2:26.16 | 203326 | 214291


Track 1

Filename C:\Rips v2\Milk & Bone - Deception Bay {2018} [BONAL058CD] (FLAC)\01 - Set in Stone.wav

Pre-gap length 0:00:02.00

Peak level 98.8 %
Extraction speed 2.2 X
Track quality 99.9 %
Test CRC C5183B04
Copy CRC C5183B04
Track not present in AccurateRip database
Copy OK

Track 2

Filename C:\Rips v2\Milk & Bone - Deception Bay {2018} [BONAL058CD] (FLAC)\02 - Daydream.wav

Peak level 98.8 %
Extraction speed 2.8 X
Track quality 100.0 %
Test CRC D915E45D
Copy CRC D915E45D
Track not present in AccurateRip database
Copy OK

Track 3

Filename C:\Rips v2\Milk & Bone - Deception Bay {2018} [BONAL058CD] (FLAC)\03 - Kids.wav

Peak level 98.8 %
Extraction speed 2.9 X
Track quality 100.0 %
Test CRC 52352B77
Copy CRC 52352B77
Track not present in AccurateRip database
Copy OK

Track 4

Filename C:\Rips v2\Milk & Bone - Deception Bay {2018} [BONAL058CD] (FLAC)\04 - Care.wav

Peak level 98.8 %
Extraction speed 3.0 X
Track quality 100.0 %
Test CRC D6593756
Copy CRC D6593756
Track not present in AccurateRip database
Copy OK

Track 5

Filename C:\Rips v2\Milk & Bone - Deception Bay {2018} [BONAL058CD] (FLAC)\05 - Nevermore.wav

Peak level 98.8 %
Extraction speed 3.3 X
Track quality 100.0 %
Test CRC 62906801
Copy CRC 62906801
Track not present in AccurateRip database
Copy OK

Track 6

Filename C:\Rips v2\Milk & Bone - Deception Bay {2018} [BONAL058CD] (FLAC)\06 - Sad Eyes.wav

Peak level 98.8 %
Extraction speed 3.6 X
Track quality 100.0 %
Test CRC 12F0EDBF
Copy CRC 12F0EDBF
Track not present in AccurateRip database
Copy OK

Track 7

Filename C:\Rips v2\Milk & Bone - Deception Bay {2018} [BONAL058CD] (FLAC)\07 - Tmrw..wav

Peak level 98.7 %
Extraction speed 3.2 X
Track quality 99.9 %
Test CRC 599ACDA6
Copy CRC 599ACDA6
Track not present in AccurateRip database
Copy OK

Track 8

Filename C:\Rips v2\Milk & Bone - Deception Bay {2018} [BONAL058CD] (FLAC)\08 - Interlude I.wav

Peak level 98.7 %
Extraction speed 2.9 X
Track quality 100.0 %
Test CRC AC5A030B
Copy CRC AC5A030B
Track not present in AccurateRip database
Copy OK

Track 9

Filename C:\Rips v2\Milk & Bone - Deception Bay {2018} [BONAL058CD] (FLAC)\09 - The Flood.wav

Peak level 98.8 %
Extraction speed 3.9 X
Track quality 100.0 %
Test CRC 03581D18
Copy CRC 03581D18
Track not present in AccurateRip database
Copy OK

Track 10

Filename C:\Rips v2\Milk & Bone - Deception Bay {2018} [BONAL058CD] (FLAC)\10 - Interlude II.wav

Peak level 91.1 %
Extraction speed 2.1 X
Track quality 100.0 %
Test CRC D10F1C74
Copy CRC D10F1C74
Track not present in AccurateRip database
Copy OK

Track 11

Filename C:\Rips v2\Milk & Bone - Deception Bay {2018} [BONAL058CD] (FLAC)\11 - Deception Bay.wav

Peak level 98.8 %
Extraction speed 4.0 X
Track quality 100.0 %
Test CRC 7EAD1862
Copy CRC 7EAD1862
Track not present in AccurateRip database
Copy OK

Track 12

Filename C:\Rips v2\Milk & Bone - Deception Bay {2018} [BONAL058CD] (FLAC)\12 - Faded.wav

Peak level 98.8 %
Extraction speed 3.5 X
Track quality 99.9 %
Test CRC 6FF52F40
Copy CRC 6FF52F40
Track not present in AccurateRip database
Copy OK

Track 13

Filename C:\Rips v2\Milk & Bone - Deception Bay {2018} [BONAL058CD] (FLAC)\13 - BBBLUE.wav

Peak level 98.8 %
Extraction speed 4.5 X
Track quality 100.0 %
Test CRC 2DC97184
Copy CRC 2DC97184
Track not present in AccurateRip database
Copy OK

Track 14

Filename C:\Rips v2\Milk & Bone - Deception Bay {2018} [BONAL058CD] (FLAC)\14 - -').wav

Peak level 98.8 %
Extraction speed 3.4 X
Track quality 100.0 %
Test CRC 4AADE149
Copy CRC 4AADE149
Track not present in AccurateRip database
Copy OK


None of the tracks are present in the AccurateRip database

No errors occurred

End of status report

–– CUETools DB Plugin V2.1.6

[CTDB TOCID: f1GC1J7ivzQquV.FF0HljNIYStA-] found
Submit result: f1GC1J7ivzQquV.FF0HljNIYStA- has been confirmed
Track | CTDB Status
1 | (1/1) Accurately ripped
2 | (1/1) Accurately ripped
3 | (1/1) Accurately ripped
4 | (1/1) Accurately ripped
5 | (1/1) Accurately ripped
6 | (1/1) Accurately ripped
7 | (1/1) Accurately ripped
8 | (1/1) Accurately ripped
9 | (1/1) Accurately ripped
10 | (1/1) Accurately ripped
11 | (1/1) Accurately ripped
12 | (1/1) Accurately ripped
13 | (1/1) Accurately ripped
14 | (1/1) Accurately ripped


==== Log checksum 1448C1FB032922D2A053395C30426DBB83D465E015E9F60F8B36A1C883B4E36E ====


Thanks to the Original customer.