Subcategories

Milton Nascimento & Jobim Trio - Novas Bossas (2008)

Posted By: tiburon
Milton Nascimento & Jobim Trio - Novas Bossas (2008)

Milton Nascimento & Jobim Trio - Novas Bossas (2008)
EAC 1.0b3 | FLAC tracks level 8 | Cue+Log+M3U | Full Scans 300dpi | 374MB + 5% Recovery
Genre: Bossa Nova, Latin Jazz, MPB
Milton Nascimento & Jobim Trio - Novas Bossas (2008)

Tom Jobim was the originator of the new Bossa Nova beat in Brazil in the late '50s and it was Joao Gilberto that first mastered the guitar technique to introduce it to the world in 1958. They both said that Milton Nascimento was the only singer that could reach the original pitch of the compositions and so it is entirely fitting that he has teamed up here with Tom's son Paulo and grandson Daniel for a recording session to celebrate both Tom Jobim and the anniversary of his invention of the Bossa Nova. Mixing songs by Tom Jobim, Milton Nascimento and Daniel Jobim, this is a true master class in the art of the Bossa and a new milestone in Brazilian music.
Track List
01. Tudo Que Voce Podia Ser 3:44
02. Dias Azuis 4:08
03. Cais 3:28
04. O Vento 3:50
05. Tarde 4:38
06. Brigas Nunca Mais 2:04
07. Caminhos Cruzados 4:54
08. Inutil Paisagem 3:33
09. Chega De Saudade 3:29
10. Medo De Amar 3:52
11. Velho Riacho 2:42
12. Esperanca Perdida 6:06
13. Trem De Ferro 3:59
14. Samba Do Aviao 4:00

musicians
Milton Nascimento - lead and background vocals, acoustic guitar, piano on track 3
Daniel Jobim - piano, guitar on track 1, Minimoog, Wurlitzer organ, vocoder, lead vocals on track 2
Paulo Jobim - lead guitars, background vocals
Paulo Braga - drums, percussion
Rodrigo Villa - double bass
Danilo Caymmi - flute on track 2
Gastao Villeroy - bass on track 14

Produced by Milton Nascimento and Jobim Trio


Exact Audio Copy V1.0 beta 3 from 29. August 2011

EAC extraction logfile from 19. February 2013, 3:44

Milton Nascimento And Jobim Trio / Novas Bossas

Used drive : HL-DT-STDVDRAM GH20NS10 Adapter: 2 ID: 1

Read mode : Secure
Utilize accurate stream : Yes
Defeat audio cache : Yes
Make use of C2 pointers : No

Read offset correction : 667
Overread into Lead-In and Lead-Out : No
Fill up missing offset samples with silence : Yes
Delete leading and trailing silent blocks : No
Null samples used in CRC calculations : Yes
Used interface : Native Win32 interface for Win NT & 2000
Gap handling : Appended to previous track

Used output format : User Defined Encoder
Selected bitrate : 1024 kBit/s
Quality : High
Add ID3 tag : No
Command line compressor : C:\Program Files\Exact Audio Copy\Flac\flac.exe
Additional command line options : -8 -V -T "ARTIST=%artist%" -T "TITLE=%title%" -T "ALBUM=%albumtitle%" -T "DATE=%year%" -T "TRACKNUMBER=%tracknr%" -T "TOTALTRACKS=%numtracks%" -T "GENRE=%genre%" -T "ALBUMARTIST=%albumartist%" -T "ALBUM ARTIST=%albumartist%" -T "COMMENT=EAC Secure Mode, Test & Copy, AccurateRip, FLAC -8" %source%


TOC of the extracted CD

Track | Start | Length | Start sector | End sector
––––––––––––––––––––––––––––-
1 | 0:00.00 | 3:46.07 | 0 | 16956
2 | 3:46.07 | 4:08.44 | 16957 | 35600
3 | 7:54.51 | 3:29.60 | 35601 | 51335
4 | 11:24.36 | 3:50.40 | 51336 | 68625
5 | 15:15.01 | 4:39.70 | 68626 | 89620
6 | 19:54.71 | 2:06.06 | 89621 | 99076
7 | 22:01.02 | 4:56.35 | 99077 | 121311
8 | 26:57.37 | 3:34.56 | 121312 | 137417
9 | 30:32.18 | 3:31.71 | 137418 | 153313
10 | 34:04.14 | 3:51.58 | 153314 | 170696
11 | 37:55.72 | 2:43.02 | 170697 | 182923
12 | 40:38.74 | 6:07.20 | 182924 | 210468
13 | 46:46.19 | 4:01.01 | 210469 | 228544
14 | 50:47.20 | 4:00.49 | 228545 | 246593


Track 1

Filename D:\Milton Nascimento & Jobim Trio - Novas Bossas (2008) [FLAC]\01 - Tudo Que Voce Podia Ser.wav

Pre-gap length 0:00:02.00

Peak level 98.1 %
Extraction speed 3.3 X
Track quality 99.9 %
Test CRC 43207073
Copy CRC 43207073
Accurately ripped (confidence 2) [126E5DE7] (AR v2)
Copy OK

Track 2

Filename D:\Milton Nascimento & Jobim Trio - Novas Bossas (2008) [FLAC]\02 - Dias Azuis.wav

Pre-gap length 0:00:01.44

Peak level 98.1 %
Extraction speed 5.0 X
Track quality 100.0 %
Test CRC 05549E58
Copy CRC 05549E58
Accurately ripped (confidence 2) [CF011E7B] (AR v2)
Copy OK

Track 3

Filename D:\Milton Nascimento & Jobim Trio - Novas Bossas (2008) [FLAC]\03 - Cais.wav

Peak level 98.1 %
Extraction speed 4.2 X
Track quality 99.9 %
Test CRC 091CC02E
Copy CRC 091CC02E
Accurately ripped (confidence 2) [C26F7A37] (AR v2)
Copy OK

Track 4

Filename D:\Milton Nascimento & Jobim Trio - Novas Bossas (2008) [FLAC]\04 - O Vento.wav

Pre-gap length 0:00:01.44

Peak level 98.1 %
Extraction speed 5.0 X
Track quality 100.0 %
Test CRC D3B92B30
Copy CRC D3B92B30
Accurately ripped (confidence 2) [38E0C709] (AR v2)
Copy OK

Track 5

Filename D:\Milton Nascimento & Jobim Trio - Novas Bossas (2008) [FLAC]\05 - Tarde.wav

Peak level 98.1 %
Extraction speed 4.9 X
Track quality 100.0 %
Test CRC 1F00E21C
Copy CRC 1F00E21C
Accurately ripped (confidence 2) [3F392DCB] (AR v2)
Copy OK

Track 6

Filename D:\Milton Nascimento & Jobim Trio - Novas Bossas (2008) [FLAC]\06 - Brigas Nunca Mais.wav

Pre-gap length 0:00:01.44

Peak level 98.1 %
Extraction speed 4.5 X
Track quality 100.0 %
Test CRC CD7A90C6
Copy CRC CD7A90C6
Accurately ripped (confidence 2) [B57563F0] (AR v2)
Copy OK

Track 7

Filename D:\Milton Nascimento & Jobim Trio - Novas Bossas (2008) [FLAC]\07 - Caminhos Cruzados.wav

Pre-gap length 0:00:01.44

Peak level 98.1 %
Extraction speed 5.2 X
Track quality 99.9 %
Test CRC 7880F939
Copy CRC 7880F939
Accurately ripped (confidence 2) [424EC245] (AR v2)
Copy OK

Track 8

Filename D:\Milton Nascimento & Jobim Trio - Novas Bossas (2008) [FLAC]\08 - Inutil Paisagem.wav

Pre-gap length 0:00:01.44

Peak level 98.1 %
Extraction speed 6.6 X
Track quality 100.0 %
Test CRC 63878392
Copy CRC 63878392
Accurately ripped (confidence 2) [B33B8DAB] (AR v2)
Copy OK

Track 9

Filename D:\Milton Nascimento & Jobim Trio - Novas Bossas (2008) [FLAC]\09 - Chega De Saudade.wav

Pre-gap length 0:00:01.09

Peak level 98.1 %
Extraction speed 7.0 X
Track quality 100.0 %
Test CRC 1F793138
Copy CRC 1F793138
Accurately ripped (confidence 2) [3E54243B] (AR v2)
Copy OK

Track 10

Filename D:\Milton Nascimento & Jobim Trio - Novas Bossas (2008) [FLAC]\10 - Medo De Amar.wav

Pre-gap length 0:00:02.18

Peak level 98.1 %
Extraction speed 7.3 X
Track quality 100.0 %
Test CRC 8D84A190
Copy CRC 8D84A190
Accurately ripped (confidence 2) [47D77935] (AR v2)
Copy OK

Track 11

Filename D:\Milton Nascimento & Jobim Trio - Novas Bossas (2008) [FLAC]\11 - Velho Riacho.wav

Peak level 98.1 %
Extraction speed 5.2 X
Track quality 99.9 %
Test CRC A4A07BD2
Copy CRC A4A07BD2
Accurately ripped (confidence 2) [89A86594] (AR v2)
Copy OK

Track 12

Filename D:\Milton Nascimento & Jobim Trio - Novas Bossas (2008) [FLAC]\12 - Esperanca Perdida.wav

Pre-gap length 0:00:02.04

Peak level 98.1 %
Extraction speed 8.1 X
Track quality 100.0 %
Test CRC 3FE28BA0
Copy CRC 3FE28BA0
Accurately ripped (confidence 2) [D3D3BEEE] (AR v2)
Copy OK

Track 13

Filename D:\Milton Nascimento & Jobim Trio - Novas Bossas (2008) [FLAC]\13 - Trem De Ferro.wav

Peak level 98.1 %
Extraction speed 6.6 X
Track quality 99.9 %
Test CRC FE5B9B8B
Copy CRC FE5B9B8B
Accurately ripped (confidence 2) [AE11B390] (AR v2)
Copy OK

Track 14

Filename D:\Milton Nascimento & Jobim Trio - Novas Bossas (2008) [FLAC]\14 - Samba Do Aviao.wav

Pre-gap length 0:00:01.44

Peak level 98.1 %
Extraction speed 8.2 X
Track quality 100.0 %
Test CRC 682CCB69
Copy CRC 682CCB69
Accurately ripped (confidence 2) [6EED45B2] (AR v2)
Copy OK


All tracks accurately ripped

No errors occurred

End of status report

==== Log checksum 63879D55D0EFE5FD59F991AD74E8224D3BBDC37F832F528198AC6623BEAAE31D ====


––––––––––––––––––––––––––––––––––––––––
Analyzed: Milton Nascimento And Jobim Trio / Novas Bossas
––––––––––––––––––––––––––––––––––––––––

DR Peak RMS Duration Track
––––––––––––––––––––––––––––––––––––––––
DR8 -0.16 dB -9.90 dB 3:46 01/14-Tudo Que Voce Podia Ser
DR8 -0.16 dB -10.39 dB 4:09 02/14-Dias Azuis
DR8 -0.16 dB -10.88 dB 3:30 03/14-Cais
DR8 -0.16 dB -10.88 dB 3:51 04/14-O Vento
DR10 -0.16 dB -11.78 dB 4:40 05/14-Tarde
DR9 -0.16 dB -10.02 dB 2:06 06/14-Brigas Nunca Mais
DR9 -0.16 dB -10.77 dB 4:56 07/14-Caminhos Cruzados
DR10 -0.16 dB -11.14 dB 3:35 08/14-Inutil Paisagem
DR9 -0.16 dB -9.85 dB 3:32 09/14-Chega De Saudade
DR10 -0.16 dB -11.78 dB 3:52 10/14-Medo De Amar
DR9 -0.16 dB -11.28 dB 2:43 11/14-Velho Riacho
DR9 -0.16 dB -11.67 dB 6:07 12/14-Esperanca Perdida
DR9 -0.16 dB -11.03 dB 4:01 13/14-Trem De Ferro
DR7 -0.16 dB -9.42 dB 4:01 14/14-Samba Do Aviao
––––––––––––––––––––––––––––––––––––––––

Number of tracks: 14
Official DR value: DR9

Samplerate: 44100 Hz
Channels: 2
Bits per sample: 16
Bitrate: 878 kbps
Codec: FLAC
================================================================================

Milton Nascimento & Jobim Trio - Novas Bossas (2008)
Milton Nascimento & Jobim Trio - Novas Bossas (2008)
Milton Nascimento & Jobim Trio - Novas Bossas (2008)


Rip by tiburon