Subcategories
Tags
Language
Tags

Mireille Mathieu - Rendezvous (1984)

Posted By: popsakov
Mireille Mathieu - Rendezvous (1984)

Mireille Mathieu - Rendezvous (1984)
EAC Rip | FLAC (Tracks) + Cue + Log + m3u ~ 333 Mb | MP3 CBR320 ~ 129 Mb
Full Scans ~ 61 Mb | 00:53:39 | RAR 5% Recovery
Pop, Schlager, Chanson | Ariola #610 209-222

French chanteuse Mireille Mathieu is classically known for her illustrious French crooning during the '60s and '70s. In the early '60s, French pop vocalist Johnny Hallyday's manager Johnny Stark noticed Mathieu's enchanting vocalic beauty and later built her into her own star with the classic urchin hairdo and loud, vibrant costumes. She was quickly hailed as the next Edith Piaf and her 1965 performance run at the Paris Olympia sparked her recording relationship with Barclay Records. Singles such as "Mon Credo," "C'est Ton Nom," and "Qu'elle Est Belle" made Mathieu an international star in Europe while achieving mild success in the Americas, but her cover of Englebert Humperdinck's "The Last Waltz" was an impressive French interpretation that made her impact charts in Britain. Humperdinck returned the favor by choosing to sing Mathieu's "Les Bicyclettes de Belsize." Mireille Mathieu has recorded over 1200 songs in eleven languages, with more than 150 million albums sold worldwide.

***************

Mireille Mathieu - Rendezvous (1984)

Mireille Mathieu - Rendezvous (1984)

Track List:

01. Es geht mir gut, Cheri [0:02:51.12]
02. Der Zar und das Madchen [0:02:59.38]
03. Hinter den Kulissen von Paris [0:02:33.12]
04. Martin [0:02:58.65]
05. La Paloma ade [0:03:51.00]
06. Kleine Schwalbe [0:03:46.73]
07. Together We're Strong [0:03:57.00]
08. Vai colomba bianca [0:03:55.00]
09. Der Pariser Tango [0:02:51.05]
10. An einem Sonntag in Avignon [0:03:21.02]
11. Aloa-he [0:03:27.68]
12. Ganz Paris ist ein Theater [0:03:30.37]
13. Santa Maria [0:03:38.63]
14. Tarata-Ting, Tarata-Tong [0:03:04.65]
15. Nur fur Dich [0:03:30.10]
16. Akropolis adieu [0:03:27.67]

Exact Audio Copy V1.0 beta 3 from 29. August 2011

EAC extraction logfile from 12. October 2013, 16:48

Mireille Mathieu / Rendezvous

Used drive : ATAPI iHAS124 D Adapter: 0 ID: 2

Read mode : Secure
Utilize accurate stream : Yes
Defeat audio cache : Yes
Make use of C2 pointers : No

Read offset correction : 6
Overread into Lead-In and Lead-Out : No
Fill up missing offset samples with silence : Yes
Delete leading and trailing silent blocks : No
Null samples used in CRC calculations : Yes
Used interface : Installed external ASPI interface
Gap handling : Appended to previous track

Used output format : User Defined Encoder
Selected bitrate : 1024 kBit/s
Quality : High
Add ID3 tag : No
Command line compressor : C:\Program Files (x86)\Exact Audio Copy\Flac\flac.exe
Additional command line options : -6 -V -T "ARTIST=%artist%" -T "TITLE=%title%" -T "ALBUM=%albumtitle%" -T "DATE=%year%" -T "TRACKNUMBER=%tracknr%" -T "GENRE=%genre%" -T "COMMENT=%comment%" -T "BAND=%albuminterpret%" -T "COMPOSER=%composer%" %haslyrics%–tag-from-file=LYRICS="%lyricsfile%"%haslyrics% -T "DISCNUMBER=%cdnumber%" -T "TOTALDISCS=%totalcds%" -T "TOTALTRACKS=%numtracks%" %hascover%–picture="%coverfile%"%hascover% %source% -o %dest%


TOC of the extracted CD

Track | Start | Length | Start sector | End sector
––––––––––––––––––––––––––––-
1 | 0:00.00 | 2:51.12 | 0 | 12836
2 | 2:51.12 | 2:59.38 | 12837 | 26299
3 | 5:50.50 | 2:33.12 | 26300 | 37786
4 | 8:23.62 | 2:58.65 | 37787 | 51201
5 | 11:22.52 | 3:51.00 | 51202 | 68526
6 | 15:13.52 | 3:46.73 | 68527 | 85549
7 | 19:00.50 | 3:57.00 | 85550 | 103324
8 | 22:57.50 | 3:55.00 | 103325 | 120949
9 | 26:52.50 | 2:51.05 | 120950 | 133779
10 | 29:43.55 | 3:21.02 | 133780 | 148856
11 | 33:04.57 | 3:27.68 | 148857 | 164449
12 | 36:32.50 | 3:30.37 | 164450 | 180236
13 | 40:03.12 | 3:38.63 | 180237 | 196649
14 | 43:42.00 | 3:04.65 | 196650 | 210514
15 | 46:46.65 | 3:30.10 | 210515 | 226274
16 | 50:17.00 | 3:27.67 | 226275 | 241866


Track 1

Filename C:\mm\Mireille Mathieu\1984 - Rendezvous\01 - Es geht mir gut, Cheri.wav

Pre-gap length 0:00:02.00

Peak level 94.1 %
Extraction speed 4.9 X
Track quality 100.0 %
Test CRC E75ACC31
Copy CRC E75ACC31
Cannot be verified as accurate (confidence 2) [13B3E870], AccurateRip returned [BC7FB6FC] (AR v2)
Copy OK

Track 2

Filename C:\mm\Mireille Mathieu\1984 - Rendezvous\02 - Der Zar und das Madchen.wav

Pre-gap length 0:00:00.37

Peak level 75.8 %
Extraction speed 5.4 X
Track quality 100.0 %
Test CRC AF87FE20
Copy CRC AF87FE20
Cannot be verified as accurate (confidence 2) [B39D4944], AccurateRip returned [4B5F202B] (AR v2)
Copy OK

Track 3

Filename C:\mm\Mireille Mathieu\1984 - Rendezvous\03 - Hinter den Kulissen von Paris.wav

Pre-gap length 0:00:00.25

Peak level 86.4 %
Extraction speed 5.6 X
Track quality 100.0 %
Test CRC 5188C2E7
Copy CRC 5188C2E7
Cannot be verified as accurate (confidence 2) [C64B096B], AccurateRip returned [626C15AC] (AR v2)
Copy OK

Track 4

Filename C:\mm\Mireille Mathieu\1984 - Rendezvous\04 - Martin.wav

Pre-gap length 0:00:00.12

Peak level 73.9 %
Extraction speed 6.1 X
Track quality 100.0 %
Test CRC 02E0BCC9
Copy CRC 02E0BCC9
Cannot be verified as accurate (confidence 2) [B2417803], AccurateRip returned [9B3D0DA5] (AR v2)
Copy OK

Track 5

Filename C:\mm\Mireille Mathieu\1984 - Rendezvous\05 - La Paloma ade.wav

Pre-gap length 0:00:00.52

Peak level 78.9 %
Extraction speed 6.8 X
Track quality 100.0 %
Test CRC F0466137
Copy CRC F0466137
Cannot be verified as accurate (confidence 2) [FA109AA0], AccurateRip returned [6A77BA84] (AR v2)
Copy OK

Track 6

Filename C:\mm\Mireille Mathieu\1984 - Rendezvous\06 - Kleine Schwalbe.wav

Pre-gap length 0:00:00.15

Peak level 84.1 %
Extraction speed 7.2 X
Track quality 100.0 %
Test CRC 9BBECB73
Copy CRC 9BBECB73
Cannot be verified as accurate (confidence 2) [43A3D303], AccurateRip returned [B8D1FF2F] (AR v2)
Copy OK

Track 7

Filename C:\mm\Mireille Mathieu\1984 - Rendezvous\07 - Together We're Strong.wav

Pre-gap length 0:00:00.38

Peak level 73.2 %
Extraction speed 7.7 X
Track quality 100.0 %
Test CRC 1E2977CB
Copy CRC 1E2977CB
Cannot be verified as accurate (confidence 2) [87BAB057], AccurateRip returned [B3AE7555] (AR v2)
Copy OK

Track 8

Filename C:\mm\Mireille Mathieu\1984 - Rendezvous\08 - Vai colomba bianca.wav

Pre-gap length 0:00:01.00

Peak level 81.1 %
Extraction speed 8.0 X
Track quality 100.0 %
Test CRC A5B50C52
Copy CRC A5B50C52
Cannot be verified as accurate (confidence 2) [2B0C2103], AccurateRip returned [ED32463C] (AR v2)
Copy OK

Track 9

Filename C:\mm\Mireille Mathieu\1984 - Rendezvous\09 - Der Pariser Tango.wav

Pre-gap length 0:00:00.38

Peak level 79.6 %
Extraction speed 8.0 X
Track quality 100.0 %
Test CRC 1C888286
Copy CRC 1C888286
Cannot be verified as accurate (confidence 2) [3D4D35D6], AccurateRip returned [534C375F] (AR v2)
Copy OK

Track 10

Filename C:\mm\Mireille Mathieu\1984 - Rendezvous\10 - An einem Sonntag in Avignon.wav

Pre-gap length 0:00:01.68

Peak level 81.5 %
Extraction speed 8.4 X
Track quality 100.0 %
Test CRC 2362ED31
Copy CRC 2362ED31
Cannot be verified as accurate (confidence 2) [AD426BDF], AccurateRip returned [C8B57E60] (AR v2)
Copy OK

Track 11

Filename C:\mm\Mireille Mathieu\1984 - Rendezvous\11 - Aloa-he.wav

Pre-gap length 0:00:00.20

Peak level 79.0 %
Extraction speed 8.7 X
Track quality 100.0 %
Test CRC 2229BE00
Copy CRC 2229BE00
Cannot be verified as accurate (confidence 2) [5E0D1249], AccurateRip returned [2E82FCC2] (AR v2)
Copy OK

Track 12

Filename C:\mm\Mireille Mathieu\1984 - Rendezvous\12 - Ganz Paris ist ein Theater.wav

Pre-gap length 0:00:00.13

Peak level 84.3 %
Extraction speed 7.5 X
Track quality 99.9 %
Test CRC D56FAD9A
Copy CRC D56FAD9A
Cannot be verified as accurate (confidence 2) [6EE15E0F], AccurateRip returned [DA1C5F46] (AR v2)
Copy OK

Track 13

Filename C:\mm\Mireille Mathieu\1984 - Rendezvous\13 - Santa Maria.wav

Pre-gap length 0:00:00.25

Peak level 95.0 %
Extraction speed 9.5 X
Track quality 100.0 %
Test CRC AB9AB62B
Copy CRC AB9AB62B
Cannot be verified as accurate (confidence 2) [C497A776], AccurateRip returned [6ADF7B7B] (AR v2)
Copy OK

Track 14

Filename C:\mm\Mireille Mathieu\1984 - Rendezvous\14 - Tarata-Ting, Tarata-Tong.wav

Pre-gap length 0:00:00.13

Peak level 82.8 %
Extraction speed 9.5 X
Track quality 100.0 %
Test CRC 6EC78B49
Copy CRC 6EC78B49
Cannot be verified as accurate (confidence 2) [B74497E6], AccurateRip returned [05A4EA76] (AR v2)
Copy OK

Track 15

Filename C:\mm\Mireille Mathieu\1984 - Rendezvous\15 - Nur fur Dich.wav

Pre-gap length 0:00:00.13

Peak level 72.3 %
Extraction speed 8.2 X
Track quality 99.9 %
Test CRC D3E50B7F
Copy CRC D3E50B7F
Cannot be verified as accurate (confidence 2) [9B1B104C], AccurateRip returned [7C78D365] (AR v2)
Copy OK

Track 16

Filename C:\mm\Mireille Mathieu\1984 - Rendezvous\16 - Akropolis adieu.wav

Pre-gap length 0:00:00.13

Peak level 86.9 %
Extraction speed 10.1 X
Track quality 100.0 %
Test CRC D9BC73D7
Copy CRC D9BC73D7
Cannot be verified as accurate (confidence 2) [8ACC2E03], AccurateRip returned [2D79164D] (AR v2)
Copy OK


No tracks could be verified as accurate
You may have a different pressing from the one(s) in the database

No errors occurred

End of status report

–– CUETools DB Plugin V2.1.3

[CTDB TOCID: pIN1RD7rgQcp00ZeOJj38LWhTpE-] found, Submit result: pIN1RD7rgQcp00ZeOJj38LWhTpE- has been confirmed
[361ebf13] (2/2) Accurately ripped

[CUETools log; Date: 17.06.2017 16:14:30; Version: 2.1.5]
[CTDB TOCID: pIN1RD7rgQcp00ZeOJj38LWhTpE-] found.
Track | CTDB Status
1 | (10/10) Accurately ripped
2 | (10/10) Accurately ripped
3 | ( 9/10) Accurately ripped
4 | (10/10) Accurately ripped
5 | (10/10) Accurately ripped
6 | (10/10) Accurately ripped
7 | (10/10) Accurately ripped
8 | (10/10) Accurately ripped
9 | (10/10) Accurately ripped
10 | (10/10) Accurately ripped
11 | (10/10) Accurately ripped
12 | (10/10) Accurately ripped
13 | (10/10) Accurately ripped
14 | (10/10) Accurately ripped
15 | (10/10) Accurately ripped
16 | (10/10) Accurately ripped
[AccurateRip ID: 001ea815-0173e16f-df0c9810] found.
Track [ CRC | V2 ] Status
01 [108cce68|13b3e870] (0+3/6) Accurately ripped
02 [1343660f|b39d4944] (0+3/6) Accurately ripped
03 [6ae43cf1|c64b096b] (0+3/6) Accurately ripped
04 [7823205c|b2417803] (0+3/6) Accurately ripped
05 [7dbcca42|fa109aa0] (0+3/6) Accurately ripped
06 [bcc2871c|43a3d303] (0+3/6) Accurately ripped
07 [59458f92|87bab057] (0+3/6) Accurately ripped
08 [37944135|2b0c2103] (0+3/6) Accurately ripped
09 [2974ca33|3d4d35d6] (0+3/6) Accurately ripped
10 [8651bb76|ad426bdf] (0+3/6) Accurately ripped
11 [a7ede27d|5e0d1249] (0+3/6) Accurately ripped
12 [415d1df3|6ee15e0f] (0+3/6) Accurately ripped
13 [cedd5463|c497a776] (0+3/6) Accurately ripped
14 [cfdc893b|b74497e6] (0+3/6) Accurately ripped
15 [639489a9|9b1b104c] (0+3/6) Accurately ripped
16 [e8472eaa|8acc2e03] (0+3/6) Accurately ripped
Offsetted by 676:
01 [4b2fa53d] (0/6) No match (V2 was not tested)
02 [4b5d2b4a] (0/6) No match (V2 was not tested)
03 [86ccce88] (0/6) No match (V2 was not tested)
04 [f6f94d13] (0/6) No match (V2 was not tested)
05 [868840ae] (0/6) No match (V2 was not tested)
06 [f55be1b6] (0/6) No match (V2 was not tested)
07 [3b8837dd] (0/6) No match (V2 was not tested)
08 [c69912f6] (0/6) No match (V2 was not tested)
09 [c0603227] (0/6) No match (V2 was not tested)
10 [56d55d43] (0/6) No match (V2 was not tested)
11 [3089aa04] (0/6) No match (V2 was not tested)
12 [6aaa865d] (0/6) No match (V2 was not tested)
13 [37c3659d] (0/6) No match (V2 was not tested)
14 [bb3a5ee5] (0/6) No match (V2 was not tested)
15 [fc70711a] (0/6) No match (V2 was not tested)
16 [44966792] (0/6) No match (V2 was not tested)

Track Peak [ CRC32 ] [W/O NULL] [ LOG ]
– 95,0 [B27EE762] [63847706]
01 94,1 [E75ACC31] [8ABD33F8] CRC32
02 75,8 [AF87FE20] [8750718F] CRC32
03 86,4 [5188C2E7] [7D24F516] CRC32
04 73,9 [02E0BCC9] [6597FB6A] CRC32
05 78,9 [F0466137] [F28790F0] CRC32
06 84,1 [9BBECB73] [B1AAA345] CRC32
07 73,2 [1E2977CB] [91ECB642] CRC32
08 81,1 [A5B50C52] [80A53ECB] CRC32
09 79,6 [1C888286] [3DFFB59B] CRC32
10 81,5 [2362ED31] [74F2E4D1] CRC32
11 79,0 [2229BE00] [7B465177] CRC32
12 84,3 [D56FAD9A] [9A533B9C] CRC32
13 95,0 [AB9AB62B] [061ACAB2] CRC32
14 82,8 [6EC78B49] [8B3F3A2E] CRC32
15 72,3 [D3E50B7F] [D0BBC7B4] CRC32
16 86,9 [D9BC73D7] [FE5CDC76] CRC32

Mireille Mathieu - Rendezvous (1984)


All thanks go to sergych

>>> Mireille Mathieu in my Blog <<<

DOWNLOAD: