Subcategories

Missus Beastly - 3 Studio Albums (1974-1978) [Reissue 2005-2015]

Posted By: gribovar
Missus Beastly - 3 Studio Albums (1974-1978) [Reissue 2005-2015]

Missus Beastly - 3 Studio Albums (1974-1978) [Reissue 2005-2015]
EAC Rip | FLAC/WavPack (tracks/image+.cue+log) - 1,16 GB | MP3 CBR 320 kbps (LAME 3.93) - 419 MB | Covers - 390 MB
Genre: Progressive/Jazz-Rock | RAR 3% Rec. | Label: Garden of Delights

Missus Beastly (1974). The history of Missus Beastly from Herford is very confusing. Their first LP from 1970, self-titled, with a red cover - still could be filed under "Underground". "Nara asst incense" is an illegal re-release of this LP. Their second record - again self-titled, in a gorilla cover - came out in 1974. It is instrumental jazz-rock, played by a significantly changed line-up. The corresponding Germanofon bootleg CD presents three bonus tracks which are not, however, songs of our Missus Beastly. To crown it all, there was a group that had the audacity to pose as Missus Beastly and even released records under their name. The first legal CD edition of the real Missus Beastly's second LP has now been released, taken from the master tape. Its booklet presents a detailed band story, discography, a lot of photographs, etc.

Dr. Aftershave & The Mixed-Pickles (1976). “Dr. Aftershave and the mixed-pickles” was Missus Beastly’s third album, which once more presented some solid jazz rock, mostly instrumental. It was at the same time the first album to be released on April, the new self-distributing label run by Missus Beastly, Ton Steine Scherben, Embryo, and Sparifankal. The LP was recorded in the well-known Stuttgart Zuckerfabrik studio (a former sugar refinery) at the beginning of 1976. The two CD bonus tracks were recorded at the Vlotho festivals (“Umsonst und draußen” [outside and for free]) 1976 and 1977. At that time, they were presented on the annual festival LPs. “Dr. Aftershave” was actually planned to be released on CD years ago, but some unexpected obstacles caused a long delay.

Space Guerilla (1978). Instrumental jazz-rock, recorded perfectly in the Stuttgart sound studio Zuckerfabrik in April 1978. Its style resembles that of its predecessor, “Dr. Aftershave and the mixed-pickles”. “Space Guerilla” was then the fourth and last LP by Missus Beastly. All of the eight songs were written by the band members themselves. The two bonus tracks were taken from sampler LPs: the first one, from the sampler “Umsonst & draußen - Porta Westvlothica 78”, was drawn from the master tape; the second one was taken from “Rock gegen rechts” (1979). The album at hand is actually the first CD release of “Space Guerilla”. The 32-page booklet contains a detailed band history, an accurate discography including cover and label reproductions, photographs, etc. Thus, the series of CD releases of Missus Beastly material has practically been completed.

Missus Beastly - 3 Studio Albums (1974-1978) [Reissue 2005-2015]

Missus Beastly - Missus Beastly (1974) [Reissue 2005]
EAC Rip | FLAC (tracks+.cue+log) - 385 MB | MP3 CBR 320 kbps (LAME 3.93) - 140 MB | Covers - 73 MB
Genre: Progressive/Jazz-Rock | RAR 3% Rec. | Label: Garden of Delights (CD 113)

Tracklist:
01. Julia
02. 20th Century Break
03. Geisha
04. Vacuum Cleaners Dance
05. Paranoidl
06. Fly Away
07. Talle
08. Free Clinic (Bonus track)
09. Voodoo Dance (Bonus track)
10. Paranoidl (Live, Bonus track)
11. Vloflutho (Bonus track)

Total time: 59:42

Exact Audio Copy V1.0 beta 3 from 29. August 2011

EAC extraction logfile from 15. June 2015, 21:19

Missus Beastly / Missus Beastly (2nd Self-Titled Release)

Used drive : _NEC DVD_RW ND-3540A Adapter: 1 ID: 0

Read mode : Secure
Utilize accurate stream : Yes
Defeat audio cache : Yes
Make use of C2 pointers : No

Read offset correction : 48
Overread into Lead-In and Lead-Out : No
Fill up missing offset samples with silence : Yes
Delete leading and trailing silent blocks : No
Null samples used in CRC calculations : Yes
Used interface : Native Win32 interface for Win NT & 2000
Gap handling : Appended to previous track

Used output format : User Defined Encoder
Selected bitrate : 1024 kBit/s
Quality : High
Add ID3 tag : Yes
Command line compressor : C:\Program Files (x86)\Exact Audio Copy\FLAC\FLAC.EXE
Additional command line options : -6 -V -T "ARTIST=%artist%" -T "TITLE=%title%" -T "ALBUM=%albumtitle%" -T "DATE=%year%" -T "TRACKNUMBER=%tracknr%" -T "GENRE=%genre%" -T "COMMENT=%comment%" %hascover%–picture="%coverfile%"%hascover% %source% -o %dest%


TOC of the extracted CD

Track | Start | Length | Start sector | End sector
––––––––––––––––––––––––––––-
1 | 0:00.00 | 4:03.28 | 0 | 18252
2 | 4:03.28 | 5:06.04 | 18253 | 41206
3 | 9:09.32 | 5:25.55 | 41207 | 65636
4 | 14:35.12 | 5:22.13 | 65637 | 89799
5 | 19:57.25 | 4:24.14 | 89800 | 109613
6 | 24:21.39 | 7:48.55 | 109614 | 144768
7 | 32:10.19 | 5:49.11 | 144769 | 170954
8 | 37:59.30 | 6:42.20 | 170955 | 201124
9 | 44:41.50 | 6:13.18 | 201125 | 229117
10 | 50:54.68 | 3:47.72 | 229118 | 246214
11 | 54:42.65 | 4:59.44 | 246215 | 268683


Track 1

Filename F:\Music\olaf_alien\Missus Beastly - st. (1974, Venus-Nova - 2005, Garden Of Delights)\01 - Julia.wav

Pre-gap length 0:00:02.00

Peak level 87.6 %
Extraction speed 1.5 X
Track quality 99.9 %
Test CRC 84C83B9A
Copy CRC 84C83B9A
Accurately ripped (confidence 2) [10290E77] (AR v2)
Copy OK

Track 2

Filename F:\Music\olaf_alien\Missus Beastly - st. (1974, Venus-Nova - 2005, Garden Of Delights)\02 - 20th Century Break.wav

Peak level 83.5 %
Extraction speed 1.6 X
Track quality 99.9 %
Test CRC 65739356
Copy CRC 65739356
Accurately ripped (confidence 2) [55BFE32B] (AR v2)
Copy OK

Track 3

Filename F:\Music\olaf_alien\Missus Beastly - st. (1974, Venus-Nova - 2005, Garden Of Delights)\03 - Geisha.wav

Peak level 85.8 %
Extraction speed 2.1 X
Track quality 100.0 %
Test CRC E12862A3
Copy CRC E12862A3
Accurately ripped (confidence 2) [06A20175] (AR v2)
Copy OK

Track 4

Filename F:\Music\olaf_alien\Missus Beastly - st. (1974, Venus-Nova - 2005, Garden Of Delights)\04 - Vacuum Cleaners Dance.wav

Peak level 83.2 %
Extraction speed 2.2 X
Track quality 100.0 %
Test CRC 99440E6B
Copy CRC 99440E6B
Accurately ripped (confidence 2) [7BBB8EE7] (AR v2)
Copy OK

Track 5

Filename F:\Music\olaf_alien\Missus Beastly - st. (1974, Venus-Nova - 2005, Garden Of Delights)\05 - Paranoidl.wav

Peak level 83.3 %
Extraction speed 2.1 X
Track quality 100.0 %
Test CRC 02967683
Copy CRC 02967683
Accurately ripped (confidence 2) [92BC97A6] (AR v2)
Copy OK

Track 6

Filename F:\Music\olaf_alien\Missus Beastly - st. (1974, Venus-Nova - 2005, Garden Of Delights)\06 - Fly Away.wav

Peak level 86.9 %
Extraction speed 2.2 X
Track quality 100.0 %
Test CRC 082021E0
Copy CRC 082021E0
Accurately ripped (confidence 2) [31161B7B] (AR v2)
Copy OK

Track 7

Filename F:\Music\olaf_alien\Missus Beastly - st. (1974, Venus-Nova - 2005, Garden Of Delights)\07 - Talle.wav

Peak level 82.9 %
Extraction speed 2.2 X
Track quality 100.0 %
Test CRC D7FF0583
Copy CRC D7FF0583
Accurately ripped (confidence 2) [482518B6] (AR v2)
Copy OK

Track 8

Filename F:\Music\olaf_alien\Missus Beastly - st. (1974, Venus-Nova - 2005, Garden Of Delights)\08 - Free Clinic (bonus).wav

Pre-gap length 0:00:05.00

Peak level 100.0 %
Extraction speed 2.2 X
Track quality 100.0 %
Test CRC 3CEB1198
Copy CRC 3CEB1198
Accurately ripped (confidence 2) [4148AB93] (AR v2)
Copy OK

Track 9

Filename F:\Music\olaf_alien\Missus Beastly - st. (1974, Venus-Nova - 2005, Garden Of Delights)\09 - Voodoo Dance (bonus).wav

Peak level 79.7 %
Extraction speed 2.2 X
Track quality 100.0 %
Test CRC 98D2428B
Copy CRC 98D2428B
Accurately ripped (confidence 2) [A9963300] (AR v2)
Copy OK

Track 10

Filename F:\Music\olaf_alien\Missus Beastly - st. (1974, Venus-Nova - 2005, Garden Of Delights)\10 - Paranoidl (live bonus).wav

Peak level 95.5 %
Extraction speed 2.1 X
Track quality 100.0 %
Test CRC C5C4A1D0
Copy CRC C5C4A1D0
Accurately ripped (confidence 2) [28E74066] (AR v2)
Copy OK

Track 11

Filename F:\Music\olaf_alien\Missus Beastly - st. (1974, Venus-Nova - 2005, Garden Of Delights)\11 - Vloflutho (bonus).wav

Pre-gap length 0:00:05.00

Peak level 100.0 %
Extraction speed 2.1 X
Track quality 100.0 %
Test CRC 6ABAB479
Copy CRC 6ABAB479
Accurately ripped (confidence 2) [2F817775] (AR v2)
Copy OK


All tracks accurately ripped

No errors occurred

End of status report

==== Log checksum C3209C6B0C87C961610B0AFAF4C6C5F8305B819DB2909EC5129DC8619E2F2EA4 ====

[CUETools log; Date: 20.06.2015 22:10:02; Version: 2.1.4]
[CTDB TOCID: N4ZchhqkbftL4byLLMX74U9BxD0-] found.
Track | CTDB Status
1 | (4/4) Accurately ripped
2 | (4/4) Accurately ripped
3 | (4/4) Accurately ripped
4 | (4/4) Accurately ripped
5 | (4/4) Accurately ripped
6 | (4/4) Accurately ripped
7 | (4/4) Accurately ripped
8 | (4/4) Accurately ripped
9 | (4/4) Accurately ripped
10 | (4/4) Accurately ripped
11 | (4/4) Accurately ripped
[AccurateRip ID: 001830e1-00d4c5c5-9e0dfe0b] found.
Track [ CRC | V2 ] Status
01 [f8133b10|10290e77] (3+2/5) Accurately ripped
02 [7e538388|55bfe32b] (3+2/5) Accurately ripped
03 [e6a0cda8|06a20175] (3+2/5) Accurately ripped
04 [961d3c39|7bbb8ee7] (3+2/5) Accurately ripped
05 [d9f08491|92bc97a6] (3+2/5) Accurately ripped
06 [dd95c01b|31161b7b] (3+2/5) Accurately ripped
07 [419f8b83|482518b6] (4+2/6) Accurately ripped
08 [99ec0936|4148ab93] (3+2/5) Accurately ripped
09 [3bb5dcef|a9963300] (3+2/5) Accurately ripped
10 [3a491071|28e74066] (3+2/5) Accurately ripped
11 [1fee1fd0|2f817775] (3+2/5) Accurately ripped

Track Peak [ CRC32 ] [W/O NULL] [ LOG ]
– 100,0 [FCB9FBD1] [37E6500F]
01 87,6 [84C83B9A] [AFE48CCF] CRC32
02 83,5 [65739356] [DA6C5557] CRC32
03 85,8 [E12862A3] [FD658E1C] CRC32
04 83,2 [99440E6B] [C90324D3] CRC32
05 83,3 [02967683] [BFFDD399] CRC32
06 86,9 [082021E0] [0F17F250] CRC32
07 82,9 [D7FF0583] [5EC354A8] CRC32
08 100,0 [3CEB1198] [E283718B] CRC32
09 79,7 [98D2428B] [3485FDEF] CRC32
10 95,5 [C5C4A1D0] [7CFEF437] CRC32
11 100,0 [6ABAB479] [0406F589] CRC32

Missus Beastly - 3 Studio Albums (1974-1978) [Reissue 2005-2015]

Missus Beastly - Dr. Aftershave & The Mixed-Pickles (1976) [Reissue 2011]
EAC Rip | WavPack (image+.cue+log) - 386 MB | MP3 CBR 320 kbps (LAME 3.93) - 137 MB | Covers - 116 MB
Genre: Progressive/Jazz-Rock | RAR 3% Rec. | Label: Garden of Delights (CD 162)

Tracklist:
01. Miles All Along The Watchtower
02. High Life
03. Morning Sun
04. Gurus For Sale
05. La Plague De Patscha Menga
06. Nothing Again
07. Patscha Menga Underground
08. For Evi
09. Slow One (Stoppt Strauß) (Vlotho 1976, Bonus track)
10. For Flü (Vlotho 1977, Bonus track)

Total time: 59:06

Exact Audio Copy V1.0 beta 1 from 15. November 2010

EAC extraction logfile from 13. August 2011, 9:47

Missus Beastly / Dr. Aftershave & The Mixed-Pickles

Used drive : HL-DT-STDVDRAM GH22NS50 Adapter: 3 ID: 0

Read mode : Secure
Utilize accurate stream : Yes
Defeat audio cache : Yes
Make use of C2 pointers : No

Read offset correction : 667
Overread into Lead-In and Lead-Out : No
Fill up missing offset samples with silence : Yes
Delete leading and trailing silent blocks : No
Null samples used in CRC calculations : Yes
Used interface : Installed external ASPI interface

Used output format : Benutzerdefinierter Komprimierer
Selected bitrate : 1024 kBit/s
Quality : High
Add ID3 tag : No
Command line compressor : C:\Program Files (x86)\wavpack\wavpack.exe
Additional command line options : -hm -w "Year=%y" -w "Genre=%m" %s %d


TOC of the extracted CD

Track | Start | Length | Start sector | End sector
––––––––––––––––––––––––––––-
1 | 0:00.00 | 6:04.00 | 0 | 27299
2 | 6:04.00 | 4:39.22 | 27300 | 48246
3 | 10:43.22 | 6:30.14 | 48247 | 77510
4 | 17:13.36 | 5:14.46 | 77511 | 101106
5 | 22:28.07 | 5:16.69 | 101107 | 124875
6 | 27:45.01 | 9:59.13 | 124876 | 169813
7 | 37:44.14 | 3:51.68 | 169814 | 187206
8 | 41:36.07 | 2:58.34 | 187207 | 200590
9 | 44:34.41 | 6:59.35 | 200591 | 232050
10 | 51:34.01 | 7:32.31 | 232051 | 265981


Range status and errors

Selected range

Filename M:\M\Missus Beastly\Dr. Aftershave & The Mixed-Pickles\LossLess\Missus Beastly - Dr. Aftershave & The Mixed-Pickles.wav

Peak level 100.0 %
Extraction speed 0.2 X
Range quality 100.0 %
Test CRC 6EFABB83
Copy CRC 6EFABB83
Copy OK

No errors occurred


AccurateRip summary

Track 1 accurately ripped (confidence 1) [D55A2EF9]
Track 2 accurately ripped (confidence 1) [19FE37BD]
Track 3 accurately ripped (confidence 1) [8043E3E1]
Track 4 accurately ripped (confidence 1) [533F33DA]
Track 5 accurately ripped (confidence 1) [B05BC95D]
Track 6 accurately ripped (confidence 1) [10A62A22]
Track 7 accurately ripped (confidence 1) [82BEF4F1]
Track 8 accurately ripped (confidence 1) [65D91384]
Track 9 accurately ripped (confidence 1) [F03391D1]
Track 10 accurately ripped (confidence 1) [E4D856C5]

All tracks accurately ripped

End of status report

==== Log checksum 05AD9F5DBD6B4AD6E2AC784566310218B31B299A8770E8B8359D0BD65CDDE2E6 ====

[CUETools log; Date: 18.01.2016 1:34:17; Version: 2.1.4]
[CTDB TOCID: TXiqOdttpIUhxBEWadoZRx67cu0-] found.
Track | CTDB Status
1 | (3/3) Accurately ripped
2 | (3/3) Accurately ripped
3 | (3/3) Accurately ripped
4 | (3/3) Accurately ripped
5 | (3/3) Accurately ripped
6 | (3/3) Accurately ripped
7 | (3/3) Accurately ripped
8 | (3/3) Accurately ripped
9 | (3/3) Accurately ripped
10 | (3/3) Accurately ripped
[AccurateRip ID: 0015e43e-00af8252-940dda0a] found.
Track [ CRC | V2 ] Status
01 [d55a2ef9|41a790b5] (0+5/5) Accurately ripped
02 [19fe37bd|895a2371] (0+5/5) Accurately ripped
03 [8043e3e1|5e0ea3c2] (0+5/5) Accurately ripped
04 [533f33da|2f4e81e3] (0+5/5) Accurately ripped
05 [b05bc95d|e8ea6da9] (0+5/5) Accurately ripped
06 [10a62a22|a74bb49f] (0+5/5) Accurately ripped
07 [82bef4f1|ce3f9ed9] (0+5/5) Accurately ripped
08 [65d91384|cd9aca27] (0+5/5) Accurately ripped
09 [f03391d1|80e84bab] (0+5/5) Accurately ripped
10 [e4d856c5|f7740681] (0+5/5) Accurately ripped

Track Peak [ CRC32 ] [W/O NULL] [ LOG ]
– 100,0 [6EFABB83] [DFCD53D7] CRC32
01 100,0 [43A6D5AB] [FD9E7BBE]
02 96,6 [FDD6EFA8] [379121DB]
03 96,6 [A8746CE3] [C9C554D3]
04 96,6 [BC37FA4B] [6F0C1F2E]
05 96,6 [04661D0A] [F04B32AB]
06 96,6 [108FD9A6] [70E3C09E]
07 96,6 [50B32BCE] [3B119086]
08 96,6 [9B2DACF5] [39870AD0]
09 96,6 [84A598D0] [6EF20387]
10 96,6 [A942FC8E] [E02E9530]

Missus Beastly - 3 Studio Albums (1974-1978) [Reissue 2005-2015]

Missus Beastly - Space Guerilla (1978) [Reissue 2015]
EAC Rip | FLAC (tracks+.cue+log) - 396 MB | MP3 CBR 320 kbps (LAME 3.93) - 142 MB | Covers - 201 MB
Genre: Progressive/Jazz-Rock | RAR 3% Rec. | Label: Garden Of Delights (CD 176)

Tracklist:
01. Space Guerilla
02. Guitar For Sale
03. Rahsaan Roland Kirk
04. Fuzzy, Don't Go To The Disco
05. Hoffmannstropfen
06. Cose Dola
07. For Flü
08. King Garlic
09. Porta Erotica (Bonus track)
10. Gorleben ist überall (Bonus track)

Total time: 01:00:24

Exact Audio Copy V1.0 beta 3 from 29. August 2011

EAC extraction logfile from 15. January 2016, 20:52

Missus Beastly / Spaceguerilla

Used drive : _NEC DVD_RW ND-3540A Adapter: 1 ID: 0

Read mode : Secure
Utilize accurate stream : Yes
Defeat audio cache : Yes
Make use of C2 pointers : No

Read offset correction : 48
Overread into Lead-In and Lead-Out : No
Fill up missing offset samples with silence : Yes
Delete leading and trailing silent blocks : No
Null samples used in CRC calculations : Yes
Used interface : Native Win32 interface for Win NT & 2000
Gap handling : Appended to previous track

Used output format : User Defined Encoder
Selected bitrate : 1024 kBit/s
Quality : High
Add ID3 tag : Yes
Command line compressor : C:\Program Files (x86)\Exact Audio Copy\FLAC\FLAC.EXE
Additional command line options : -6 -V -T "ARTIST=%artist%" -T "TITLE=%title%" -T "ALBUM=%albumtitle%" -T "DATE=%year%" -T "TRACKNUMBER=%tracknr%" -T "GENRE=%genre%" -T "COMMENT=%comment%" %hascover%–picture="%coverfile%"%hascover% %source% -o %dest%


TOC of the extracted CD

Track | Start | Length | Start sector | End sector
––––––––––––––––––––––––––––-
1 | 0:00.00 | 10:51.61 | 0 | 48885
2 | 10:51.61 | 8:01.32 | 48886 | 84992
3 | 18:53.18 | 2:50.03 | 84993 | 97745
4 | 21:43.21 | 3:25.06 | 97746 | 113126
5 | 25:08.27 | 6:04.05 | 113127 | 140431
6 | 31:12.32 | 5:20.13 | 140432 | 164444
7 | 36:32.45 | 6:59.60 | 164445 | 195929
8 | 43:32.30 | 6:43.25 | 195930 | 226179
9 | 50:15.55 | 4:46.74 | 226180 | 247703
10 | 55:02.54 | 5:19.23 | 247704 | 271651


Track 1

Filename F:\Music\olaf_alien\Missus Beastly - Spaceguerilla (1978, Schneeball - 2015, GoD)\01 - Space Guerilla.wav

Pre-gap length 0:00:02.00

Peak level 100.0 %
Extraction speed 5.1 X
Track quality 100.0 %
Test CRC 9158FF88
Copy CRC 9158FF88
Track not present in AccurateRip database
Copy OK

Track 2

Filename F:\Music\olaf_alien\Missus Beastly - Spaceguerilla (1978, Schneeball - 2015, GoD)\02 - Guitar For Sale.wav

Peak level 100.0 %
Extraction speed 6.1 X
Track quality 100.0 %
Test CRC 5EAE383C
Copy CRC 5EAE383C
Track not present in AccurateRip database
Copy OK

Track 3

Filename F:\Music\olaf_alien\Missus Beastly - Spaceguerilla (1978, Schneeball - 2015, GoD)\03 - Rahsaan Roland Kirk.wav

Peak level 99.3 %
Extraction speed 5.8 X
Track quality 100.0 %
Test CRC 63DBF33E
Copy CRC 63DBF33E
Track not present in AccurateRip database
Copy OK

Track 4

Filename F:\Music\olaf_alien\Missus Beastly - Spaceguerilla (1978, Schneeball - 2015, GoD)\04 - Fuzzy, Don't Go To The Disco.wav

Peak level 98.0 %
Extraction speed 6.2 X
Track quality 100.0 %
Test CRC 63BEA730
Copy CRC 63BEA730
Track not present in AccurateRip database
Copy OK

Track 5

Filename F:\Music\olaf_alien\Missus Beastly - Spaceguerilla (1978, Schneeball - 2015, GoD)\05 - Hoffmannstropfen.wav

Peak level 99.4 %
Extraction speed 7.1 X
Track quality 100.0 %
Test CRC CA07FD71
Copy CRC CA07FD71
Track not present in AccurateRip database
Copy OK

Track 6

Filename F:\Music\olaf_alien\Missus Beastly - Spaceguerilla (1978, Schneeball - 2015, GoD)\06 - Cose Dola (Dole Cosa).wav

Peak level 97.6 %
Extraction speed 7.4 X
Track quality 100.0 %
Test CRC 494D85A3
Copy CRC 494D85A3
Track not present in AccurateRip database
Copy OK

Track 7

Filename F:\Music\olaf_alien\Missus Beastly - Spaceguerilla (1978, Schneeball - 2015, GoD)\07 - For Flu.wav

Peak level 100.0 %
Extraction speed 8.0 X
Track quality 100.0 %
Test CRC 0175747C
Copy CRC 0175747C
Track not present in AccurateRip database
Copy OK

Track 8

Filename F:\Music\olaf_alien\Missus Beastly - Spaceguerilla (1978, Schneeball - 2015, GoD)\08 - King Garlic.wav

Peak level 98.4 %
Extraction speed 8.3 X
Track quality 100.0 %
Test CRC 266F2032
Copy CRC 266F2032
Track not present in AccurateRip database
Copy OK

Track 9

Filename F:\Music\olaf_alien\Missus Beastly - Spaceguerilla (1978, Schneeball - 2015, GoD)\09 - Porta Erotica [bonus].wav

Pre-gap length 0:00:04.00

Peak level 96.6 %
Extraction speed 8.3 X
Track quality 100.0 %
Test CRC D179870B
Copy CRC D179870B
Track not present in AccurateRip database
Copy OK

Track 10

Filename F:\Music\olaf_alien\Missus Beastly - Spaceguerilla (1978, Schneeball - 2015, GoD)\10 - Gorleben ist uberall.wav

Pre-gap length 0:00:02.00

Peak level 100.0 %
Extraction speed 8.7 X
Track quality 100.0 %
Test CRC 374C53BF
Copy CRC 374C53BF
Track not present in AccurateRip database
Copy OK


None of the tracks are present in the AccurateRip database

No errors occurred

End of status report

==== Log checksum 9BA4CBDD2F689E6FCBADDD53BDEA99FD3601C46D8AEA80F2A983285A670D914D ====

[CUETools log; Date: 17.01.2016 20:21:05; Version: 2.1.4]
[CTDB TOCID: N1Ualr4SIAgffRh3iQKS254t7Oc-] disk not present in database.
[AccurateRip ID: 00184737-00bcc596-700e260a] disk not present in database.

Track Peak [ CRC32 ] [W/O NULL] [ LOG ]
– 100,0 [7DABE7D3] [C32FF8A0]
01 100,0 [9158FF88] [83531604] CRC32
02 99,9 [5EAE383C] [92CDBCC9] CRC32
03 99,3 [63DBF33E] [900D1CC8] CRC32
04 98,0 [63BEA730] [AAFFF650] CRC32
05 99,4 [CA07FD71] [785A8956] CRC32
06 97,6 [494D85A3] [AB403405] CRC32
07 100,0 [0175747C] [6DC40123] CRC32
08 98,4 [266F2032] [3B071753] CRC32
09 96,6 [D179870B] [4247CD65] CRC32
10 100,0 [374C53BF] [1757BFC0] CRC32

Thanks to olaf_alien & Antikalk

See also:
Missus Beastly - Missus Beastly (1970) [Reissue 2002]
Missus Beastly - Bremen 1974 (1974) [Reissue 2006]
Missus Beastly - SWF-Session 1974 (2012)

Missus Beastly - Missus Beastly (1974) [Reissue 2005]

LOSSLESS:
Nitroflare.com
_______________

MP3 320 kbps:
Nitroflare.com
_______________

Covers:
Nitroflare.com
______________________________________

Missus Beastly - Dr. Aftershave & The Mixed-Pickles (1976) [Reissue 2011]

LOSSLESS:
Nitroflare.com
_______________

MP3 320 kbps:
Nitroflare.com
_______________

Covers:
Nitroflare.com
______________________________________

Missus Beastly - Space Guerilla (1978) [Reissue 2015]

LOSSLESS:
Nitroflare.com
_______________

MP3 320 kbps:
Nitroflare.com
_______________

Covers:
Nitroflare.com

Missus Beastly - Missus Beastly (1974) [Reissue 2005]

LOSSLESS:
Depositfiles.com
_______________

MP3 320 kbps:
Depositfiles.com
_______________

Covers:
Depositfiles.com
______________________________________

Missus Beastly - Dr. Aftershave & The Mixed-Pickles (1976) [Reissue 2011]

LOSSLESS:
Depositfiles.com
_______________

MP3 320 kbps:
Depositfiles.com
_______________

Covers:
Depositfiles.com
______________________________________

Missus Beastly - Space Guerilla (1978) [Reissue 2015]

LOSSLESS:
Depositfiles.com
_______________

MP3 320 kbps:
Depositfiles.com
_______________

Covers:
Depositfiles.com