Subcategories

Mist Season - 2 Studio Albums (2006-2011)

Posted By: gribovar
Mist Season - 2 Studio Albums (2006-2011)

Mist Season - 2 Studio Albums (2006-2011)
EAC Rip | FLAC (tracks+.cue+log) - 890 MB | MP3 CBR 320 kbps (LAME 3.93) - 338 MB | Covers - 242 MB
Genre: Progressive Rock/Fusion | RAR 3% Rec. | Label: Seacrest Oy

Mist Season was founded in 2004, in Hämeenlinna (Finland). The desire to play music including a spectrum of emotional and dynamic elements, bordering between progressive rock and fusion was the initiative for the group which consists of five members. Keijo Hakala (bass) has extensive experience as a rock / jazz musician. This holds true for Kimmo Pörsti (drums) as well, who has been involved, for instance, in numerous television music productions. Tommi Varjola (guitar) teaches guitar in a music institute. He and Timo Kajamies (keyboards) both have classical training. Kari Rantakallio (sax) is a professional sax player in a brass band in addition to many theater productions. The members in the quintet have gathered musical experience with an array of different artists, such as Jouko Kantola (formerly with Kaamos), Juhani Aaltonen (formerly with Tasavallan Presidentti) and Ted Curson (formerly with Charles Mingus).
A living legend in the Finnish prog scene, Tommi Liuhala, who has been working already in the 70's with bands such as Wigwam, Kalevala, and Haikara, took part in the production of the Mist Season debut CD. Mist Season can been compared to PFM, Camel, Phil Miller, Pekka Pohjola, Yellowjackets, , Passport and Pat Metheny Group.
Mist Season is a very recommendable band for listeners who appreciate music that is neither machine-driven nor artificial.

Mist Season - 2 Studio Albums (2006-2011)

Mist Season - Woodlands (2006)
EAC Rip | FLAC (tracks+.cue+log) - 469 MB | MP3 CBR 320 kbps (LAME 3.93) - 179 MB | Covers - 117 MB
Genre: Progressive Rock/Fusion | RAR 3% Rec. | Label: Seacrest Oy (SCR-1002)

Tracklist:
01. Far Away from Home
02. Cartway across the Branches part I
03. Daylite Sprite
04. Cartway across the Branches part II
05. Dance of the Miststress
06. The Six Spruce
07. Flowers of Asia
08. Dawn
09. Vexplorer
10. Cartway across the Branches part III
11. Woodpecker the Mocker
12. Skyward Leafage
13. Cartway across the Branches part IV
14. Garden of Beruwela
15. Tears of Woodland

Total time: 01:17:04

Exact Audio Copy V1.0 beta 1 from 15. November 2010

EAC extraction logfile from 26. September 2014, 18:41

Mist Season / Woodlands

Used drive : SlimtypeDVD A DS8A4S Adapter: 1 ID: 0

Read mode : Secure
Utilize accurate stream : Yes
Defeat audio cache : Yes
Make use of C2 pointers : No

Read offset correction : 6
Overread into Lead-In and Lead-Out : No
Fill up missing offset samples with silence : Yes
Delete leading and trailing silent blocks : No
Null samples used in CRC calculations : Yes
Used interface : Installed external ASPI interface
Gap handling : Appended to previous track

Used output format : User Defined Encoder
Selected bitrate : 896 kBit/s
Quality : High
Add ID3 tag : No
Command line compressor : C:\Program Files\Exact Audio Copy\Flac\flac.exe
Additional command line options : -8 -V -T "ARTIST=%a" -T "TITLE=%t" -T "ALBUM=%g" -T "DATE=%y" -T "TRACKNUMBER=%n" -T "GENRE=%m" -T "COMMENT=EAC Secure Mode, Test & Copy, AccurateRip, FLAC -8" %s


TOC of the extracted CD

Track | Start | Length | Start sector | End sector
––––––––––––––––––––––––––––-
1 | 0:00.00 | 5:46.34 | 0 | 25983
2 | 5:46.34 | 4:30.18 | 25984 | 46251
3 | 10:16.52 | 4:50.22 | 46252 | 68023
4 | 15:06.74 | 2:20.24 | 68024 | 78547
5 | 17:27.23 | 4:41.43 | 78548 | 99665
6 | 22:08.66 | 4:10.32 | 99666 | 118447
7 | 26:19.23 | 5:24.49 | 118448 | 142796
8 | 31:43.72 | 4:40.37 | 142797 | 163833
9 | 36:24.34 | 4:16.22 | 163834 | 183055
10 | 40:40.56 | 5:14.05 | 183056 | 206610
11 | 45:54.61 | 3:03.33 | 206611 | 220368
12 | 48:58.19 | 8:20.63 | 220369 | 257931
13 | 57:19.07 | 2:56.64 | 257932 | 271195
14 | 60:15.71 | 5:56.49 | 271196 | 297944
15 | 66:12.45 | 9:53.16 | 297945 | 342435


Track 1

Filename D:\bzp01\Mist Season - Woodlands (2006) [FLAC] {SCR-1002}\01 - Far Away from Home.wav

Pre-gap length 0:00:02.00

Peak level 94.3 %
Extraction speed 2.9 X
Track quality 100.0 %
Test CRC 499374F6
Copy CRC 499374F6
Accurately ripped (confidence 2) [5359A26C]
Copy OK

Track 2

Filename D:\bzp01\Mist Season - Woodlands (2006) [FLAC] {SCR-1002}\02 - Cartway across the Branches part I.wav

Pre-gap length 0:00:02.48

Peak level 94.8 %
Extraction speed 3.2 X
Track quality 100.0 %
Test CRC 5DECD551
Copy CRC 5DECD551
Accurately ripped (confidence 2) [97022A73]
Copy OK

Track 3

Filename D:\bzp01\Mist Season - Woodlands (2006) [FLAC] {SCR-1002}\03 - Daylite Sprite.wav

Pre-gap length 0:00:03.00

Peak level 97.7 %
Extraction speed 3.6 X
Track quality 100.0 %
Test CRC 6071BA16
Copy CRC 6071BA16
Accurately ripped (confidence 2) [41495A30]
Copy OK

Track 4

Filename D:\bzp01\Mist Season - Woodlands (2006) [FLAC] {SCR-1002}\04 - Cartway across the Branches part II.wav

Pre-gap length 0:00:02.64

Peak level 97.7 %
Extraction speed 3.3 X
Track quality 100.0 %
Test CRC 442BE133
Copy CRC 442BE133
Accurately ripped (confidence 2) [FA67FB84]
Copy OK

Track 5

Filename D:\bzp01\Mist Season - Woodlands (2006) [FLAC] {SCR-1002}\05 - Dance of the Miststress.wav

Pre-gap length 0:00:03.22

Peak level 91.4 %
Extraction speed 3.3 X
Track quality 99.9 %
Test CRC AA76255A
Copy CRC AA76255A
Accurately ripped (confidence 2) [E9E23303]
Copy OK

Track 6

Filename D:\bzp01\Mist Season - Woodlands (2006) [FLAC] {SCR-1002}\06 - The Six Spruce.wav

Pre-gap length 0:00:04.10

Peak level 97.7 %
Extraction speed 4.1 X
Track quality 100.0 %
Test CRC 64A65034
Copy CRC 64A65034
Accurately ripped (confidence 2) [809A69CC]
Copy OK

Track 7

Filename D:\bzp01\Mist Season - Woodlands (2006) [FLAC] {SCR-1002}\07 - Flowers of Asia.wav

Pre-gap length 0:00:01.64

Peak level 97.7 %
Extraction speed 4.4 X
Track quality 100.0 %
Test CRC 4C95D5DD
Copy CRC 4C95D5DD
Accurately ripped (confidence 2) [011D434E]
Copy OK

Track 8

Filename D:\bzp01\Mist Season - Woodlands (2006) [FLAC] {SCR-1002}\08 - Dawn.wav

Pre-gap length 0:00:02.52

Peak level 97.7 %
Extraction speed 4.5 X
Track quality 100.0 %
Test CRC D509649D
Copy CRC D509649D
Accurately ripped (confidence 2) [91302DAA]
Copy OK

Track 9

Filename D:\bzp01\Mist Season - Woodlands (2006) [FLAC] {SCR-1002}\09 - Vexplorer.wav

Pre-gap length 0:00:03.21

Peak level 97.7 %
Extraction speed 4.7 X
Track quality 100.0 %
Test CRC B3C1D170
Copy CRC B3C1D170
Accurately ripped (confidence 2) [7ABEE8C2]
Copy OK

Track 10

Filename D:\bzp01\Mist Season - Woodlands (2006) [FLAC] {SCR-1002}\10 - Cartway across the Branches part III.wav

Pre-gap length 0:00:03.08

Peak level 92.6 %
Extraction speed 5.0 X
Track quality 100.0 %
Test CRC 1F9D8E75
Copy CRC 1F9D8E75
Accurately ripped (confidence 2) [8B9FE4DB]
Copy OK

Track 11

Filename D:\bzp01\Mist Season - Woodlands (2006) [FLAC] {SCR-1002}\11 - Woodpecker the Mocker.wav

Pre-gap length 0:00:03.02

Peak level 97.7 %
Extraction speed 4.7 X
Track quality 100.0 %
Test CRC 1C38762B
Copy CRC 1C38762B
Accurately ripped (confidence 2) [93BE7A04]
Copy OK

Track 12

Filename D:\bzp01\Mist Season - Woodlands (2006) [FLAC] {SCR-1002}\12 - Skyward Leafage.wav

Pre-gap length 0:00:03.12

Peak level 92.6 %
Extraction speed 5.6 X
Track quality 100.0 %
Test CRC DD8BA37B
Copy CRC DD8BA37B
Accurately ripped (confidence 2) [6ACC171F]
Copy OK

Track 13

Filename D:\bzp01\Mist Season - Woodlands (2006) [FLAC] {SCR-1002}\13 - Cartway across the Branches part IV.wav

Pre-gap length 0:00:03.06

Peak level 100.0 %
Extraction speed 5.1 X
Track quality 100.0 %
Test CRC A838075F
Copy CRC A838075F
Accurately ripped (confidence 2) [18A88FF3]
Copy OK

Track 14

Filename D:\bzp01\Mist Season - Woodlands (2006) [FLAC] {SCR-1002}\14 - Garden of Beruwela.wav

Pre-gap length 0:00:03.17

Peak level 96.4 %
Extraction speed 5.7 X
Track quality 100.0 %
Test CRC 7F4C9DB8
Copy CRC 7F4C9DB8
Accurately ripped (confidence 2) [710A1D91]
Copy OK

Track 15

Filename D:\bzp01\Mist Season - Woodlands (2006) [FLAC] {SCR-1002}\15 - Tears of Woodland.wav

Pre-gap length 0:00:04.05

Peak level 91.7 %
Extraction speed 6.2 X
Track quality 100.0 %
Test CRC CF5DFB1D
Copy CRC CF5DFB1D
Accurately ripped (confidence 2) [3AED710C]
Copy OK


All tracks accurately ripped

No errors occurred

End of status report

==== Log checksum 3E19AF762A052E1C72F5A8B2D6216978559FECF01DECB9628CAF379B23E7C9F3 ====

[CUETools log; Date: 14.06.2016 12:34:01; Version: 2.1.4]
[CTDB TOCID: CR9mj5iWDKd.6Gj3w9zZ0ghQH8Y-] found.
Track | CTDB Status
1 | (1/1) Accurately ripped
2 | (1/1) Accurately ripped
3 | (1/1) Accurately ripped
4 | (1/1) Accurately ripped
5 | (1/1) Accurately ripped
6 | (1/1) Accurately ripped
7 | (1/1) Accurately ripped
8 | (1/1) Accurately ripped
9 | (1/1) Accurately ripped
10 | (1/1) Accurately ripped
11 | (1/1) Accurately ripped
12 | (1/1) Accurately ripped
13 | (1/1) Accurately ripped
14 | (1/1) Accurately ripped
15 | (1/1) Accurately ripped
[AccurateRip ID: 00267fda-01b69e4f-d811d50f] found.
Track [ CRC | V2 ] Status
01 [5359a26c|4f6c6119] (0+4/4) Accurately ripped
02 [97022a73|023485d1] (0+4/4) Accurately ripped
03 [41495a30|90fe7abe] (0+4/4) Accurately ripped
04 [fa67fb84|1ea24e7e] (0+4/4) Accurately ripped
05 [e9e23303|699a0c63] (0+4/4) Accurately ripped
06 [809a69cc|bcb6b800] (0+4/4) Accurately ripped
07 [011d434e|d9ccf1eb] (0+4/4) Accurately ripped
08 [91302daa|03f9132d] (0+4/4) Accurately ripped
09 [7abee8c2|e8bf8303] (0+4/4) Accurately ripped
10 [8b9fe4db|fb204fb9] (0+4/4) Accurately ripped
11 [93be7a04|77c9b5ef] (0+4/4) Accurately ripped
12 [6acc171f|57e679f2] (0+4/4) Accurately ripped
13 [18a88ff3|ac1503d9] (0+4/4) Accurately ripped
14 [710a1d91|229003d4] (0+4/4) Accurately ripped
15 [3aed710c|a82947fd] (0+4/4) Accurately ripped

Track Peak [ CRC32 ] [W/O NULL] [ LOG ]
– 100,0 [0A882F58] [E1AFE780]
01 94,3 [499374F6] [74D66A1A] CRC32
02 94,8 [5DECD551] [012DA00D] CRC32
03 97,7 [6071BA16] [0061573E] CRC32
04 97,7 [442BE133] [F1A5B426] CRC32
05 91,4 [AA76255A] [CF3EBC4D] CRC32
06 97,7 [64A65034] [6F8DBFB9] CRC32
07 97,7 [4C95D5DD] [B7C1E3CD] CRC32
08 97,7 [D509649D] [4DA1D610] CRC32
09 97,7 [B3C1D170] [F8926448] CRC32
10 92,6 [1F9D8E75] [0EFAA622] CRC32
11 97,7 [1C38762B] [548D093D] CRC32
12 92,6 [DD8BA37B] [0E9DD6D0] CRC32
13 100,0 [A838075F] [84837771] CRC32
14 96,4 [7F4C9DB8] [7EFE1455] CRC32
15 91,7 [CF5DFB1D] [8349B5F3] CRC32

Mist Season - 2 Studio Albums (2006-2011)

Mist Season - Reflections (2011)
EAC Rip | FLAC (tracks+.cue+log) - 421 MB | MP3 CBR 320 kbps (LAME 3.93) - 159 MB | Covers - 125 MB
Genre: Progressive Rock/Fusion | RAR 3% Rec. | Label: Seacrest Oy (SCR-1004)

Tracklist:
01. Echoing Lights 1
02. Manaos
03. Defending Hands
04. Pan
05. Lobsterland Groove
06. Echoing Lights 2
07. Matelda's Song
08. Aqua Marine
09. Puppet on a Chain
10. Summer Season
11. Promenader
12. Chaser
13. Sally and Jack
14. Resolution

Total time: 01:07:31

Exact Audio Copy V1.0 beta 1 from 15. November 2010

EAC extraction logfile from 3. September 2014, 17:48

Mist Season / Reflections

Used drive : SlimtypeDVD A DS8A4S Adapter: 1 ID: 0

Read mode : Secure
Utilize accurate stream : Yes
Defeat audio cache : Yes
Make use of C2 pointers : No

Read offset correction : 6
Overread into Lead-In and Lead-Out : No
Fill up missing offset samples with silence : Yes
Delete leading and trailing silent blocks : No
Null samples used in CRC calculations : Yes
Used interface : Installed external ASPI interface
Gap handling : Appended to previous track

Used output format : User Defined Encoder
Selected bitrate : 896 kBit/s
Quality : High
Add ID3 tag : No
Command line compressor : C:\Program Files\Exact Audio Copy\Flac\flac.exe
Additional command line options : -8 -V -T "ARTIST=%a" -T "TITLE=%t" -T "ALBUM=%g" -T "DATE=%y" -T "TRACKNUMBER=%n" -T "GENRE=%m" -T "COMMENT=EAC Secure Mode, Test & Copy, AccurateRip, FLAC -8" %s


TOC of the extracted CD

Track | Start | Length | Start sector | End sector
––––––––––––––––––––––––––––-
1 | 0:00.00 | 1:50.22 | 0 | 8271
2 | 1:50.22 | 5:05.59 | 8272 | 31205
3 | 6:56.06 | 7:46.40 | 31206 | 66195
4 | 14:42.46 | 5:33.74 | 66196 | 91244
5 | 20:16.45 | 7:24.28 | 91245 | 124572
6 | 27:40.73 | 1:07.04 | 124573 | 129601
7 | 28:48.02 | 5:21.65 | 129602 | 153741
8 | 34:09.67 | 4:57.69 | 153742 | 176085
9 | 39:07.61 | 4:34.10 | 176086 | 196645
10 | 43:41.71 | 1:34.30 | 196646 | 203725
11 | 45:16.26 | 6:59.62 | 203726 | 235212
12 | 52:16.13 | 6:21.67 | 235213 | 263854
13 | 58:38.05 | 5:44.54 | 263855 | 289708
14 | 64:22.59 | 3:08.36 | 289709 | 303844


Track 1

Filename D:\bzp01\Mist Season - Reflections (2011) [FLAC] {SCR-1004}\01 - Echoing Lights 1.wav

Pre-gap length 0:00:02.00

Peak level 70.1 %
Extraction speed 2.2 X
Track quality 100.0 %
Test CRC 4159D7E9
Copy CRC 4159D7E9
Accurately ripped (confidence 1) [2F8BC41C]
Copy OK

Track 2

Filename D:\bzp01\Mist Season - Reflections (2011) [FLAC] {SCR-1004}\02 - Manaos.wav

Peak level 90.5 %
Extraction speed 2.9 X
Track quality 100.0 %
Test CRC 4D594FFC
Copy CRC 4D594FFC
Accurately ripped (confidence 1) [65552211]
Copy OK

Track 3

Filename D:\bzp01\Mist Season - Reflections (2011) [FLAC] {SCR-1004}\03 - Defending Hands.wav

Pre-gap length 0:00:02.36

Peak level 90.1 %
Extraction speed 3.2 X
Track quality 99.9 %
Test CRC 8318672D
Copy CRC 8318672D
Accurately ripped (confidence 1) [38F84A23]
Copy OK

Track 4

Filename D:\bzp01\Mist Season - Reflections (2011) [FLAC] {SCR-1004}\04 - Pan.wav

Pre-gap length 0:00:02.29

Peak level 97.7 %
Extraction speed 3.9 X
Track quality 100.0 %
Test CRC F70D84A4
Copy CRC F70D84A4
Accurately ripped (confidence 1) [FA197611]
Copy OK

Track 5

Filename D:\bzp01\Mist Season - Reflections (2011) [FLAC] {SCR-1004}\05 - Lobsterland Groove.wav

Pre-gap length 0:00:02.60

Peak level 97.7 %
Extraction speed 4.4 X
Track quality 100.0 %
Test CRC FCA03C9C
Copy CRC FCA03C9C
Accurately ripped (confidence 1) [A5295635]
Copy OK

Track 6

Filename D:\bzp01\Mist Season - Reflections (2011) [FLAC] {SCR-1004}\06 - Echoing Lights 2.wav

Pre-gap length 0:00:03.53

Peak level 65.9 %
Extraction speed 2.0 X
Track quality 99.8 %
Test CRC B569A3FA
Copy CRC B569A3FA
Accurately ripped (confidence 1) [C6FE79B9]
Copy OK

Track 7

Filename D:\bzp01\Mist Season - Reflections (2011) [FLAC] {SCR-1004}\07 - Matelda's Song.wav

Pre-gap length 0:00:00.02

Peak level 96.2 %
Extraction speed 4.5 X
Track quality 100.0 %
Test CRC 15B43811
Copy CRC 15B43811
Accurately ripped (confidence 1) [C4FB5812]
Copy OK

Track 8

Filename D:\bzp01\Mist Season - Reflections (2011) [FLAC] {SCR-1004}\08 - Aqua Marine.wav

Pre-gap length 0:00:04.32

Peak level 86.8 %
Extraction speed 4.8 X
Track quality 100.0 %
Test CRC 1B20DFFA
Copy CRC 1B20DFFA
Accurately ripped (confidence 1) [D81DC70F]
Copy OK

Track 9

Filename D:\bzp01\Mist Season - Reflections (2011) [FLAC] {SCR-1004}\09 - Puppet on a Chain.wav

Pre-gap length 0:00:02.30

Peak level 97.7 %
Extraction speed 4.9 X
Track quality 100.0 %
Test CRC 9601409B
Copy CRC 9601409B
Accurately ripped (confidence 1) [7643BE6E]
Copy OK

Track 10

Filename D:\bzp01\Mist Season - Reflections (2011) [FLAC] {SCR-1004}\10 - Summer Season.wav

Pre-gap length 0:00:05.42

Peak level 79.1 %
Extraction speed 4.1 X
Track quality 100.0 %
Test CRC CAA945BC
Copy CRC CAA945BC
Accurately ripped (confidence 1) [4844AD74]
Copy OK

Track 11

Filename D:\bzp01\Mist Season - Reflections (2011) [FLAC] {SCR-1004}\11 - Promenader.wav

Peak level 96.6 %
Extraction speed 5.5 X
Track quality 100.0 %
Test CRC 0275602C
Copy CRC 0275602C
Accurately ripped (confidence 1) [851980EB]
Copy OK

Track 12

Filename D:\bzp01\Mist Season - Reflections (2011) [FLAC] {SCR-1004}\12 - Chaser.wav

Peak level 97.7 %
Extraction speed 5.0 X
Track quality 99.9 %
Test CRC DA30D50F
Copy CRC DA30D50F
Accurately ripped (confidence 1) [D186E64F]
Copy OK

Track 13

Filename D:\bzp01\Mist Season - Reflections (2011) [FLAC] {SCR-1004}\13 - Sally and Jack.wav

Pre-gap length 0:00:04.20

Peak level 95.0 %
Extraction speed 5.7 X
Track quality 100.0 %
Test CRC CEB8141D
Copy CRC CEB8141D
Accurately ripped (confidence 1) [72BCF726]
Copy OK

Track 14

Filename D:\bzp01\Mist Season - Reflections (2011) [FLAC] {SCR-1004}\14 - Resolution.wav

Pre-gap length 0:00:04.69

Peak level 65.3 %
Extraction speed 5.5 X
Track quality 100.0 %
Test CRC E0201CC1
Copy CRC E0201CC1
Accurately ripped (confidence 1) [8381CE3E]
Copy OK


All tracks accurately ripped

No errors occurred

End of status report

==== Log checksum 5550127266974EF7CD500B05A36BA1C2E1FFC629065E83350BC680287604DB17 ====

[CUETools log; Date: 14.06.2016 12:35:03; Version: 2.1.4]
[CTDB TOCID: AAud4QsUapkleU.VE.N1pbqzcVE-] found.
Track | CTDB Status
1 | (1/1) Accurately ripped
2 | (1/1) Accurately ripped
3 | (1/1) Accurately ripped
4 | (1/1) Accurately ripped
5 | (1/1) Accurately ripped
6 | (1/1) Accurately ripped
7 | (1/1) Accurately ripped
8 | (1/1) Accurately ripped
9 | (1/1) Accurately ripped
10 | (1/1) Accurately ripped
11 | (1/1) Accurately ripped
12 | (1/1) Accurately ripped
13 | (1/1) Accurately ripped
14 | (1/1) Accurately ripped
[AccurateRip ID: 0022b27c-0173ebec-b40fd30e] found.
Track [ CRC | V2 ] Status
01 [2f8bc41c|a56c2040] (0+3/3) Accurately ripped
02 [65552211|35a51fd9] (0+3/3) Accurately ripped
03 [38f84a23|cd349f61] (0+3/3) Accurately ripped
04 [fa197611|5720853e] (0+3/3) Accurately ripped
05 [a5295635|c2db3b64] (0+3/3) Accurately ripped
06 [c6fe79b9|e92a2f6b] (0+3/3) Accurately ripped
07 [c4fb5812|923fce63] (0+3/3) Accurately ripped
08 [d81dc70f|c61e1dc1] (0+3/3) Accurately ripped
09 [7643be6e|9dedfa8c] (0+3/3) Accurately ripped
10 [4844ad74|f99041ee] (0+3/3) Accurately ripped
11 [851980eb|1a67eb27] (0+3/3) Accurately ripped
12 [d186e64f|a99a4b16] (0+3/3) Accurately ripped
13 [72bcf726|f4a81142] (0+3/3) Accurately ripped
14 [8381ce3e|2d62730c] (0+3/3) Accurately ripped

Track Peak [ CRC32 ] [W/O NULL] [ LOG ]
– 97,7 [AF1CB2FC] [EA493749]
01 70,1 [4159D7E9] [1883417C] CRC32
02 90,5 [4D594FFC] [1C3A09D7] CRC32
03 90,1 [8318672D] [CAB5ED56] CRC32
04 97,7 [F70D84A4] [5E357533] CRC32
05 97,7 [FCA03C9C] [B2AB8064] CRC32
06 65,9 [B569A3FA] [5CF36486] CRC32
07 96,2 [15B43811] [724EE8F4] CRC32
08 86,8 [1B20DFFA] [37A91A7C] CRC32
09 97,7 [9601409B] [8439CC69] CRC32
10 79,1 [CAA945BC] [71C58313] CRC32
11 96,6 [0275602C] [377FFE68] CRC32
12 97,7 [DA30D50F] [373ABAAD] CRC32
13 95,0 [CEB8141D] [FB872C1A] CRC32
14 65,3 [E0201CC1] [8A59F35D] CRC32

Thanks to bzp01