Subcategories

Mitsuko Uchida, The Cleveland Orchestra - Mozart: Piano Concertos Nos. 17 & 25 (2016)

Posted By: tirexiss
Mitsuko Uchida, The Cleveland Orchestra - Mozart: Piano Concertos Nos. 17 & 25 (2016)

Mitsuko Uchida, The Cleveland Orchestra - Mozart: Piano Concertos Nos. 17 & 25 (2016)
EAC | FLAC (image+.cue, log) | Covers Included | 67:23 | 264 MB
Genre: Classical | Label: Decca | Catalog: B002571602

For her fifth live recording of Wolfgang Amadeus Mozart's piano concertos with the Cleveland Orchestra, Mitsuko Uchida presents the Piano Concerto No. 17 in G major, K 453, and the Piano Concerto No. 25 in C major, K 503, a delightful pairing that reflects her previous albums in this critically acclaimed series on Decca. Conducting from the keyboard, Uchida plays a modern Steinway in a conventional manner without any nods to period practices, though her refinement and elegance go a long way to make up for the lack of historically informed details. Instead, Uchida has developed her own approach to Mozart, which allows for personal interaction with the music and a degree of spontaneity with the orchestra that involves playfulness and expansive lyricism. Uchida's cycle with Jeffrey Tate and the English Chamber Orchestra on Philips established her as a leading interpreter of the concertos in the 1980s and 1990s, but these later offerings have the feeling of revisiting old favorites, rather than reassessing the music in any dramatic way. A good track to sample would be the Andante of K 453, to which Uchida gives full expression of the music's beauty, in a performance that is both Classical in its lucidity and Romantic in its yearning. – Blair Sanderson

Mitsuko Uchida, The Cleveland Orchestra - Mozart: Piano Concertos Nos. 17 & 25 (2016)

Track List:

Wolfgang Amadeus Mozart

[1]-[3] Piano Concerto No.17 in G major, K453
[4]-[6] Piano Concerto No.25 in C major, K503

Performers:
Mitsuko Uchida, piano and director
The Cleveland Orchestra

Exact Audio Copy V1.1 from 23. June 2015

EAC extraction logfile from 4. April 2017, 1:09

Mitsuko Uchida, The Cleveland Orchestra / Mozart - Piano Concertos Nos. 17 & 25

Used drive : HL-DT-STDVDRAM GU70N Adapter: 1 ID: 0

Read mode : Secure
Utilize accurate stream : Yes
Defeat audio cache : Yes
Make use of C2 pointers : No

Read offset correction : 48
Overread into Lead-In and Lead-Out : No
Fill up missing offset samples with silence : Yes
Delete leading and trailing silent blocks : No
Null samples used in CRC calculations : Yes
Used interface : Native Win32 interface for Win NT & 2000

Used output format : User Defined Encoder
Selected bitrate : 128 kBit/s
Quality : High
Add ID3 tag : No
Command line compressor : C:\Program Files (x86)\Exact Audio Copy\Flac\flac.exe
Additional command line options : -V -8 -T "Date=%year%" -T "Genre=%genre%" %source%


TOC of the extracted CD

Track | Start | Length | Start sector | End sector
––––––––––––––––––––––––––––-
1 | 0:00.00 | 12:45.08 | 0 | 57382
2 | 12:45.08 | 11:29.72 | 57383 | 109129
3 | 24:15.05 | 8:30.45 | 109130 | 147424
4 | 32:45.50 | 16:39.31 | 147425 | 222380
5 | 49:25.06 | 8:23.03 | 222381 | 260108
6 | 57:48.09 | 9:32.54 | 260109 | 303062


Range status and errors

Selected range

Filename C:\temp\Mozart - Piano Concertos Nos. 17 & 25 - Mitsuko Uchida\Mozart - Piano Concertos Nos. 17 & 25.wav

Peak level 97.8 %
Extraction speed 2.2 X
Range quality 100.0 %
Test CRC DB5099B4
Copy CRC DB5099B4
Copy OK

No errors occurred


AccurateRip summary

Track 1 accurately ripped (confidence 7) [DFA1887D] (AR v2)
Track 2 accurately ripped (confidence 7) [73C2A924] (AR v2)
Track 3 accurately ripped (confidence 7) [E8F48150] (AR v2)
Track 4 accurately ripped (confidence 7) [FBA05397] (AR v2)
Track 5 accurately ripped (confidence 7) [05FE26E0] (AR v2)
Track 6 accurately ripped (confidence 7) [E36B5E56] (AR v2)

All tracks accurately ripped

End of status report

==== Log checksum 94A293828A22C39E3E8AE581557DC5E9C10F4150D9D7352EBB89262D113C6415 ====

[CUETools log; Date: 11.01.2018 11:02:10; Version: 2.1.5]
[CTDB TOCID: u_hm3Luc.Hd_hjAMdJgeDP4XFGI-] found.
Track | CTDB Status
1 | (44/44) Accurately ripped
2 | (44/44) Accurately ripped
3 | (44/44) Accurately ripped
4 | (44/44) Accurately ripped
5 | (44/44) Accurately ripped
6 | (44/44) Accurately ripped
[AccurateRip ID: 0010c6e3-0058e541-640fc806] found.
Track [ CRC | V2 ] Status
01 [fef4eeb2|dfa1887d] (00+13/13) Accurately ripped
02 [7d6fa099|73c2a924] (00+13/13) Accurately ripped
03 [8d798c4a|e8f48150] (00+13/13) Accurately ripped
04 [58ddef35|fba05397] (00+13/13) Accurately ripped
05 [755b525e|05fe26e0] (00+13/13) Accurately ripped
06 [76e32528|e36b5e56] (00+13/13) Accurately ripped

Track Peak [ CRC32 ] [W/O NULL] [ LOG ]
– 97,8 [DB5099B4] [79FD6D3D] CRC32
01 70,7 [B5804D7E] [C63F272F]
02 55,9 [1055E1B2] [3AAF395D]
03 82,3 [7CE8FD8E] [60123F2C]
04 90,5 [E8F849F7] [4F6DB1BF]
05 41,4 [BBB011DD] [9DF46436]
06 97,8 [7DB61814] [AC9C277B]

Thanks to the Original ripper A-Z!

Download: