Subcategories

Moby Grape - Moby Grape '84 (aka 'Silver Wheels' or 'Heart Album') (1984)

Posted By: Designol
Moby Grape - Moby Grape '84 (aka 'Silver Wheels' or 'Heart Album') (1984)

Moby Grape - Moby Grape '84 (aka 'Silver Wheels' or 'Heart Album') (1984)
EAC | FLAC | Image (Cue&Log) ~ 259 Mb | Mp3 (CBR320) ~ 103 Mb | Scans included
Country Rock, Folk Rock | Label: San Francisco Sound | # SFS04830 DA | 00:44:17

Moby Grape '84 is a 1984 album released by Moby Grape on the San Francisco Sound label. It is also known as "Silver Wheels" album, after the introductory song on the album, and as the "Heart Album", as referenced to the album cover. The album is notable in that it is produced by the band's former manager Matthew Katz, who also owned the San Francisco Sound label. Paradoxically, since the early 1970s, Moby Grape had been in litigation with Katz over ownership of the band name and related royalties; at the time of recording the album, matters had not been resolved.

"The Grape go country-rock and pull it off." - Jeff Tamarkin (3/5 Allmusic.com)

Moby Grape at Allmusic
Moby Grape at Wiki

Tracklist:

01. Silver Wheels (3:25)
02. Better Day (2:50)
03. Hard Road To Follow (3:59)
04. Sitting And Watching (3:36)
05. City Lights (3:35)
06. Queen Of The Crow (3:29)
07. Lost Horizon (3:48)
08. I Didn't Lie To You (3:44)
09. Suzzam (2:59)
10. Too Old To Boogie (3:01)
11. Think It Over (3:33)
12. American Dream (4:29)
13. Reprise (1:48)


Exact Audio Copy V0.99 prebeta 4 from 23. January 2008

Отчёт EAC об извлечении, выполненном 1. августа 2011, 22:55

Moby Grape / Moby Grape

Дисковод: Optiarc DVD RW AD-7200A Adapter: 0 ID: 0

Режим чтения : Достоверность
Использование точного потока : Да
Отключение кэша аудио : Да
Использование указателей C2 : Нет

Коррекция смещения при чтении : 48
Способность читать области Lead-in и Lead-out : Нет
Заполнение пропущенных сэмплов тишиной : Да
Удаление блоков с тишиной в начале и конце : Нет
При вычислениях CRC использовались нулевые сэмплы : Да
Интерфейс : Встроенный Win32-интерфейс для Win NT/2000

Выходной формат : Пользовательский кодировщик
Выбранный битрейт : 768 kBit/s
Качество : Высокий
Добавление ID3-тэга : Нет
Утилита сжатия : C:\Program Files\Exact Audio Copy\FLAC\FLAC.EXE
Дополнительные параметры : -6 -V -T "ARTIST=%a" -T "TITLE=%t" -T "ALBUM=%g" -T "DATE=%y" -T "TRACKNUMBER=%n" -T "GENRE=%m" -T "COMMENT=%e" %s -o %d


TOC извлечённого CD

Трек | Старт | Длительность | Начальный сектор | Конечный сектор
––––––––––––––––––––––––––––––––––-
1 | 0:00.33 | 3:25.10 | 33 | 15417
2 | 3:25.43 | 2:50.27 | 15418 | 28194
3 | 6:15.70 | 3:59.35 | 28195 | 46154
4 | 10:15.30 | 3:36.08 | 46155 | 62362
5 | 13:51.38 | 3:35.07 | 62363 | 78494
6 | 17:26.45 | 3:29.25 | 78495 | 94194
7 | 20:55.70 | 3:47.53 | 94195 | 111272
8 | 24:43.48 | 3:44.02 | 111273 | 128074
9 | 28:27.50 | 2:59.03 | 128075 | 141502
10 | 31:26.53 | 3:00.45 | 141503 | 155047
11 | 34:27.23 | 3:32.50 | 155048 | 170997
12 | 37:59.73 | 4:29.15 | 170998 | 191187
13 | 42:29.13 | 1:48.32 | 191188 | 199319


Характеристики диапазона извлечения и сообщения об ошибках

Выбранный диапазон

Имя файла D:\RUTRACKER\images\Moby Grape - Moby Grape 83\Moby Grape - Moby Grape.wav

Пиковый уровень 93.8 %
Качество диапазона 100.0 %
CRC копии 86E0D110
Копирование… OK

Ошибок не произошло


AccurateRip: сводка

Трек 1 точное извлечение (доверие 1) [32695794]
Трек 2 точное извлечение (доверие 1) [28331603]
Трек 3 точное извлечение (доверие 1) [83EE48D7]
Трек 4 точное извлечение (доверие 1) [D63C5D95]
Трек 5 точное извлечение (доверие 1) [C879C1F9]
Трек 6 точное извлечение (доверие 1) [21756B5A]
Трек 7 точное извлечение (доверие 1) [38C65E81]
Трек 8 точное извлечение (доверие 1) [E1FA8B29]
Трек 9 точное извлечение (доверие 1) [77DE2757]
Трек 10 точное извлечение (доверие 1) [13886CEE]
Трек 11 точное извлечение (доверие 1) [17E9B164]
Трек 12 точное извлечение (доверие 1) [14778C4B]
Трек 13 точное извлечение (доверие 1) [2034BE44]

Все треки извлечены точно

Конец отчёта

[CUETools log; Date: 15.04.2018 14:39:11; Version: 2.1.4]
Pregap length 00:00:33.
[CTDB TOCID: aRmlvbC_OczjftwLZ054PPecPXE-] found.
Track | CTDB Status
1 | (4/4) Accurately ripped
2 | (4/4) Accurately ripped
3 | (4/4) Accurately ripped
4 | (4/4) Accurately ripped
5 | (4/4) Accurately ripped
6 | (4/4) Accurately ripped
7 | (4/4) Accurately ripped
8 | (4/4) Accurately ripped
9 | (4/4) Accurately ripped
10 | (4/4) Accurately ripped
11 | (4/4) Accurately ripped
12 | (4/4) Accurately ripped
13 | (4/4) Accurately ripped
[AccurateRip ID: 0015b3b3-00d92fc5-bb0a610d] found.
Track [ CRC | V2 ] Status
01 [32695794|6a4efc5d] (0+5/5) Accurately ripped
02 [28331603|cef45755] (0+5/5) Accurately ripped
03 [83ee48d7|a98a8e7b] (0+5/5) Accurately ripped
04 [d63c5d95|8d2c5209] (0+5/5) Accurately ripped
05 [c879c1f9|b1bb93be] (0+5/5) Accurately ripped
06 [21756b5a|698e9c06] (0+5/5) Accurately ripped
07 [38c65e81|5b9c8258] (0+5/5) Accurately ripped
08 [e1fa8b29|7e7ff386] (0+5/5) Accurately ripped
09 [77de2757|12660003] (0+5/5) Accurately ripped
10 [13886cee|5bf6dda2] (0+5/5) Accurately ripped
11 [17e9b164|3df4ea70] (0+5/5) Accurately ripped
12 [14778c4b|2b770ad9] (0+5/5) Accurately ripped
13 [2034be44|e9727e19] (0+5/5) Accurately ripped

Track Peak [ CRC32 ] [W/O NULL] [ LOG ]
– 93,8 [86E0D110] [9793D6A8] CRC32
01 56,6 [BF0CEF75] [3921FFFB]
02 61,7 [1D85B1D0] [F17DB69F]
03 61,7 [DFE85750] [8EEA718C]
04 72,9 [0F825275] [84E8446C]
05 66,9 [A480DD22] [9DF5E498]
06 55,4 [C264046F] [0D8D14D5]
07 66,1 [B9DCBABF] [84B4D72E]
08 88,2 [3999645B] [A492BC2E]
09 74,8 [EA0ADD5E] [39AA9424]
10 87,3 [4D466CA2] [16C8B4D5]
11 65,6 [35C18EDD] [71E9EA42]
12 76,6 [E6455EF5] [70285C58]
13 93,8 [B85DBF1B] [92D61A33]

foobar2000 1.2 / Dynamic Range Meter 1.1.1
log date: 2018-03-25 22:44:29

––––––––––––––––––––––––––––––––––––––––
Analyzed: Moby Grape / Moby Grape
––––––––––––––––––––––––––––––––––––––––

DR Peak RMS Duration Track
––––––––––––––––––––––––––––––––––––––––
DR12 -4.93 dB -20.04 dB 3:25 01-Silver Wheels
DR12 -4.18 dB -19.84 dB 2:50 02-Better Day
DR12 -4.19 dB -19.38 dB 3:59 03-Hard Road To Follow
DR14 -2.74 dB -21.17 dB 3:36 04-Sitting And Watching
DR14 -3.49 dB -19.39 dB 3:35 05-City Lights
DR12 -5.13 dB -20.21 dB 3:29 06-Queen Of The Crow
DR13 -3.59 dB -20.09 dB 3:48 07-Lost Horizon
DR12 -1.09 dB -16.30 dB 3:44 08-I Didn't Lie To You
DR13 -2.51 dB -17.93 dB 2:59 09-Suzzam
DR14 -1.17 dB -17.89 dB 3:01 10-Too Old To Boogie
DR14 -3.66 dB -20.87 dB 3:33 11-Think It Over
DR13 -2.31 dB -18.97 dB 4:29 12-American Dream
DR12 -0.55 dB -17.79 dB 1:48 13-Reprise
––––––––––––––––––––––––––––––––––––––––

Number of tracks: 13
Official DR value: DR13

Samplerate: 44100 Hz
Channels: 2
Bits per sample: 16
Bitrate: 812 kbps
Codec: FLAC
================================================================================

Moby Grape - Moby Grape '84 (aka 'Silver Wheels' or 'Heart Album') (1984)