Subcategories

Moby Grape - 20 Granite Creek (1971) Reissue 1990

Posted By: Designol
Moby Grape - 20 Granite Creek (1971) Reissue 1990

Moby Grape - 20 Granite Creek (1971) Reissue 1990
EAC | FLAC | Image (Cue&Log) ~ 190 Mb | Mp3 (CBR320) ~ 77 Mb | Scans included | 00:32:58
Classic Rock, Psychedelic Rock, Country-Rock | Label: Linea (Line) | # LECD 9.00886 O

The story of Moby Grape has been told and re-told countless times, with its tales of excess, mismanagement, and record company screwups. By the end of the '60s the Grape was all but finished – or so everyone thought. After an aborted attempt at a Peter Lewis solo album, producer David Rubinson was able to help engineer this re-formation of all five original members, along with extra member Gordon Stevens on various stringed instruments. Written and recorded at the Grape's communal house in the Santa Cruz mountains, the results of the experiment rendered 20 Granite Creek, an album that is rightfully the successor to the first album (1967's Moby Grape). One of the most shining examples is Peter Lewis' funky and fast "Goin' Down to Texas," which clearly illustrates the power Moby Grape had in this, one of the original three-guitar lineups. Skip Spence, who was one of the more interesting writers in the band, contributes one song, the delicate and gorgeous oriental-sounding "Chinese Song." The whole record is quite similar in feel to the Doors' L.A. Woman, another truly great, homemade comeback album. Of course, it didn't sell anything. A true crime in a never-ending saga.

Review by Matthew Greenwald, Allmusic.com

Moby Grape - 20 Granite Creek (1971) Reissue 1990



Tracklist:

01. Gypsy Wedding (2:23)
02. I'm The Kind of Man That Baby You Can Trust (3:33)
03. About Time (2:51)
04. Goin' Down To Texas (1:56)
05. Road To The Sun (2:40)
06. Apocalypse (2:08)
07. Chinese Song (5:44)
08. Roundhouse Blues (2:44)
09. Ode To The Man At The End Of The Bar (3:40)
10. Wild Oats Moan (3:03)
11. Horse Out In The Rain (2:16)


Exact Audio Copy V0.99 prebeta 5 from 4. May 2009

EAC extraction logfile from 11. August 2010, 0:02

Moby Grape / 20 Granite Creek

Used drive : HP DVD Writer 1040r Adapter: 1 ID: 0

Read mode : Secure
Utilize accurate stream : Yes
Defeat audio cache : Yes
Make use of C2 pointers : No

Read offset correction : 6
Overread into Lead-In and Lead-Out : No
Fill up missing offset samples with silence : Yes
Delete leading and trailing silent blocks : No
Null samples used in CRC calculations : No
Used interface : Native Win32 interface for Win NT & 2000

Used output format : Internal WAV Routines
Sample format : 44.100 Hz; 16 Bit; Stereo


TOC of the extracted CD

Track | Start | Length | Start sector | End sector
––––––––––––––––––––––––––––-
1 | 0:00.00 | 2:23.17 | 0 | 10741
2 | 2:23.17 | 3:33.03 | 10742 | 26719
3 | 5:56.20 | 2:50.40 | 26720 | 39509
4 | 8:46.60 | 1:55.60 | 39510 | 48194
5 | 10:42.45 | 2:40.35 | 48195 | 60229
6 | 13:23.05 | 2:07.57 | 60230 | 69811
7 | 15:30.62 | 5:44.25 | 69812 | 95636
8 | 21:15.12 | 2:43.38 | 95637 | 107899
9 | 23:58.50 | 3:40.25 | 107900 | 124424
10 | 27:39.00 | 3:02.62 | 124425 | 138136
11 | 30:41.62 | 2:16.13 | 138137 | 148349


Range status and errors

Selected range

Filename C:\Documents and Settings\Default User\My Documents\Moby Grape - 20 Granite Creek\Moby Grape - 20 Granite Creek.wav

Peak level 99.9 %
Range quality 100.0 %
Copy CRC 7AB84255
Copy OK

No errors occurred


AccurateRip summary

Track 1 accurately ripped (confidence 4) [592B7CAB]
Track 2 accurately ripped (confidence 4) [61D9FF18]
Track 3 accurately ripped (confidence 4) [63D46B6B]
Track 4 accurately ripped (confidence 4) [A9711A6F]
Track 5 accurately ripped (confidence 4) [5EFA7961]
Track 6 accurately ripped (confidence 4) [C904318E]
Track 7 accurately ripped (confidence 4) [CDCB326B]
Track 8 accurately ripped (confidence 4) [A7CEB5CE]
Track 9 accurately ripped (confidence 4) [1B081AC8]
Track 10 accurately ripped (confidence 4) [09EAD6EE]
Track 11 accurately ripped (confidence 4) [86A90873]

All tracks accurately ripped

End of status report

[CUETools log; Date: 23.03.2018 17:05:36; Version: 2.1.4]
[CTDB TOCID: .vY65tmC_w61oPrhaRdEZtxOBF4-] found.
Track | CTDB Status
1 | (16/16) Accurately ripped
2 | (16/16) Accurately ripped
3 | (16/16) Accurately ripped
4 | (16/16) Accurately ripped
5 | (16/16) Accurately ripped
6 | (16/16) Accurately ripped
7 | (16/16) Accurately ripped
8 | (16/16) Accurately ripped
9 | (16/16) Accurately ripped
10 | (16/16) Accurately ripped
11 | (16/16) Accurately ripped
[AccurateRip ID: 000d451a-0074701d-8c07ba0b] found.
Track [ CRC | V2 ] Status
01 [592b7cab|d40740c8] (06+04/10) Accurately ripped
02 [61d9ff18|80cea4c5] (06+04/10) Accurately ripped
03 [63d46b6b|4e6dc00e] (06+04/10) Accurately ripped
04 [a9711a6f|bfe3dd13] (06+04/10) Accurately ripped
05 [5efa7961|6560e656] (06+04/10) Accurately ripped
06 [c904318e|c845b91a] (06+04/10) Accurately ripped
07 [cdcb326b|66313d03] (06+04/10) Accurately ripped
08 [a7ceb5ce|8721a8e5] (06+04/10) Accurately ripped
09 [1b081ac8|3885df8d] (06+04/10) Accurately ripped
10 [09ead6ee|25292f5c] (06+04/10) Accurately ripped
11 [86a90873|68b74b16] (06+04/10) Accurately ripped

Track Peak [ CRC32 ] [W/O NULL] [ LOG ]
– 99,9 [2AD249F2] [7AB84255] W/O NULL
01 93,5 [174AFFD0] [70530F51]
02 99,9 [839E6D91] [3CA00EE0]
03 78,9 [212B8BD7] [010C7499]
04 99,9 [A2E3FDCD] [89EBE1EB]
05 99,9 [5EB8F9D6] [5714E8D7]
06 84,8 [0646B1DA] [4F7285D7]
07 66,0 [12BFB9BC] [B9C0F1BB]
08 84,4 [A0EA5D69] [9E89C385]
09 66,6 [C3EA42CB] [8EA175C1]
10 99,8 [C8F90071] [37EE9BB3]
11 65,6 [516649B3] [51A4147A]

foobar2000 1.2 / Dynamic Range Meter 1.1.1
log date: 2018-03-23 19:31:32

––––––––––––––––––––––––––––––––––––––––
Analyzed: Moby Grape / 20 Granite Creek
––––––––––––––––––––––––––––––––––––––––

DR Peak RMS Duration Track
––––––––––––––––––––––––––––––––––––––––
DR12 -0.58 dB -14.76 dB 2:23 01-Gypsy Wedding
DR14 0.00 dB -15.95 dB 3:33 02-I'm The Kind of Man That Baby You Can Trust
DR13 -2.05 dB -18.02 dB 2:51 03-About Time
DR12 -0.01 dB -14.12 dB 1:56 04-Goin' Down To Texas
DR13 0.00 dB -15.88 dB 2:40 05-Road To The Sun
DR12 -1.43 dB -16.26 dB 2:08 06-Apocalypse
DR11 -3.61 dB -16.57 dB 5:44 07-Chinese Song
DR11 -1.46 dB -15.20 dB 2:44 08-Roundhouse Blues
DR14 -3.53 dB -18.87 dB 3:40 09-Ode To The Man At The End Of The Bar
DR12 -0.01 dB -14.59 dB 3:03 10-Wild Oats Moan
DR12 -3.65 dB -18.03 dB 2:16 11-Horse Out In The Rain
––––––––––––––––––––––––––––––––––––––––

Number of tracks: 11
Official DR value: DR12

Samplerate: 44100 Hz
Channels: 2
Bits per sample: 16
Bitrate: 800 kbps
Codec: FLAC
================================================================================

Moby Grape - 20 Granite Creek (1971) Reissue 1990

Moby Grape - 20 Granite Creek (1971) Reissue 1990