Subcategories

Moby Grape - Live Grape (1978) Remastered 2007

Posted By: Designol
Moby Grape - Live Grape (1978) Remastered 2007

Moby Grape - Live Grape (1978) Remastered 2007
EAC | FLAC | Tracks (Cue&Log) ~ 308 Mb | Mp3 (CBR320) ~ 112 Mb | Scans included | 00:48:31
Psychedelic Rock, Country-Rock, Folk-Rock, Blues-Rock | Label: Akarma | # AK 381

Live Grape is a 1978 album by Moby Grape, released by Escape Records, of live performances of the band at two venues in California, the Shady Grove in San Francisco and the Inn of the Beginning in Cotati. The album features core members Peter Lewis, Jerry Miller and Skip Spence. Original members Bob Mosley and Don Stevenson did not participate in the recordings, though Bob Mosley did appear with the band on occasion during this period. At the time, band members were in a protracted legal dispute with former manager Matthew Katz over ownership of the Moby Grape band name. As a result, Moby Grape is not named anywhere on the cover. The album was originally released by Escape Records in 1978. It was reissued on CD by Line Records in 1994 and Akarma Records in 2007.

Moby Grape's dissipation from business and personal pressures didn't stop the surviving guitar frontline of Peter Lewis, Jerry Miller, and Skip Spence from trying to recapture their charisma. This homegrown live album functions as a souvenir of a late attempt – which ran from July 1977 to March 1978 and mainly consisted of gigs around Santa Cruz, CA. (The album doesn't feature original drummer Don Stevenson and bassist Bob Mosley, who did play the odd gig or two.) However, former manager Matthew Katz's iron-fisted grip on the band's name forced the band's late incarnation to call itself the Grape or the Original Grape to avoid legal retribution. This album is mainly worth hearing for how Lewis and Miller matured as songwriters. Depending on how you read its lyrics, "That Lost Horizon" could be an epitaph for the group's lost potential, or an inability to find meaningful love. Lewis' other moments are outstanding, too: "Up in the Air" is breezily upbeat, but no less thoughtful, and "Your Rider" is credible boogie-pop. Miller's style tackles snappy country ("Here I Sit") and blues-funk ("I Love You So Much"); Spence's lone contribution is as joyously eccentric as anything that he ever wrote for the band, even if it doesn't stray terribly far from the I-IV-V chord trinity. Miller's picking is deft as ever on "Cuttin In" – Johnny Watson's sly request to a rival jousting for the same woman. The group could have made better choices elsewhere. Future Doobie Brother Cornelius Bumpus' tenor sax lights up an otherwise pedestrian reading of Bill Doggett's "Honky Tonk," but his only song ("Set Me Down Easy") is too bland to make an impression, and the lightweight funk jamming on the 11-minute "You Got Everything I Need" is hardly revelatory, either. For diehards, Live Grape is an engaging snapshot of a low-key night with one of rock's great lost bands, while neophytes may want to stick with the debut album.

Review by Ralph Heibutzki, Allmusic.com

Moby Grape at Allmusic
Moby Grape at Wiki

Tracklist:

01. That Lost Horizon (4:52)
02. Here I Sit (2:38)
03. Honky Tonk (5:21)
04. Cuttin' In (4:54)
05. Must Be Going' Now Dear (3:35)
06. Your Rider (3:13)
07. Up In The Air (3:53)
08. Set Me Down Easy (5:01)
09. Love You So Much (3:37)
10. You Got Everything I Need (11:28)


Exact Audio Copy V0.99 prebeta 4 from 23. January 2008

EAC extraction logfile from 17. January 2010, 19:48

Moby Grape / Live Grape

Used drive : TSSTcorpCD/DVDW TS-L632D Adapter: 0 ID: 1

Read mode : Secure
Utilize accurate stream : Yes
Defeat audio cache : Yes
Make use of C2 pointers : No

Read offset correction : 6
Overread into Lead-In and Lead-Out : No
Fill up missing offset samples with silence : Yes
Delete leading and trailing silent blocks : No
Null samples used in CRC calculations : Yes
Used interface : Native Win32 interface for Win NT & 2000
Gap handling : Appended to previous track

Used output format : User Defined Encoder
Selected bitrate : 128 kBit/s
Quality : High
Add ID3 tag : No
Command line compressor : C:\Program Files\FLAC\flac.exe
Additional command line options : -8 -V -T "ARTIST=%a" -T "TITLE=%t" -T "ALBUM=%g" -T "DATE=%y" -T "TRACKNUMBER=%n" -T "GENRE=%m" -T "COMMENT=%e" %s -o %d


TOC of the extracted CD

Track | Start | Length | Start sector | End sector
––––––––––––––––––––––––––––-
1 | 0:00.00 | 4:52.16 | 0 | 21915
2 | 4:52.16 | 2:38.13 | 21916 | 33778
3 | 7:30.29 | 5:20.50 | 33779 | 57828
4 | 12:51.04 | 4:54.17 | 57829 | 79895
5 | 17:45.21 | 3:34.47 | 79896 | 95992
6 | 21:19.68 | 3:12.57 | 95993 | 110449
7 | 24:32.50 | 3:53.34 | 110450 | 127958
8 | 28:26.09 | 5:00.40 | 127959 | 150498
9 | 33:26.49 | 3:36.66 | 150499 | 166764
10 | 37:03.40 | 11:27.46 | 166765 | 218335


Track 1

Filename D:\EAC\01 - That Lost Horizon.wav

Pre-gap length 0:00:02.00

Peak level 98.8 %
Track quality 99.9 %
Test CRC 875FA095
Copy CRC 875FA095
Cannot be verified as accurate (confidence 1) [6DB814CC], AccurateRip returned [EB1F1DE7]
Copy OK

Track 2

Filename D:\EAC\02 - Here I Sit.wav

Peak level 98.8 %
Track quality 100.0 %
Test CRC 56FF9F15
Copy CRC 56FF9F15
Cannot be verified as accurate (confidence 1) [0C5B0591], AccurateRip returned [C5845FA4]
Copy OK

Track 3

Filename D:\EAC\03 - Honky Tonk.wav

Peak level 98.8 %
Track quality 100.0 %
Test CRC C1A70B6B
Copy CRC C1A70B6B
Cannot be verified as accurate (confidence 1) [0920D3C0], AccurateRip returned [4C826403]
Copy OK

Track 4

Filename D:\EAC\04 - Cuttin' In.wav

Peak level 98.8 %
Track quality 100.0 %
Test CRC 94FB37E5
Copy CRC 94FB37E5
Cannot be verified as accurate (confidence 1) [68CADB07], AccurateRip returned [2CF86781]
Copy OK

Track 5

Filename D:\EAC\05 - Must Be Going' Now Dear.wav

Peak level 98.8 %
Track quality 100.0 %
Test CRC 8C4EBE81
Copy CRC 8C4EBE81
Cannot be verified as accurate (confidence 1) [4D2CB471], AccurateRip returned [425BC838]
Copy OK

Track 6

Filename D:\EAC\06 - Your Rider.wav

Peak level 98.8 %
Track quality 100.0 %
Test CRC 1ED55DBB
Copy CRC 1ED55DBB
Cannot be verified as accurate (confidence 1) [A0944B61], AccurateRip returned [BDBA2283]
Copy OK

Track 7

Filename D:\EAC\07 - Up In The Air.wav

Peak level 98.8 %
Track quality 99.9 %
Test CRC E59B72BA
Copy CRC E59B72BA
Cannot be verified as accurate (confidence 1) [BAEEF5F4], AccurateRip returned [DB075946]
Copy OK

Track 8

Filename D:\EAC\08 - Set Me Down Easy.wav

Peak level 98.8 %
Track quality 100.0 %
Test CRC F77B5FBD
Copy CRC F77B5FBD
Cannot be verified as accurate (confidence 1) [593D4AAE], AccurateRip returned [EEF94F9A]
Copy OK

Track 9

Filename D:\EAC\09 - Love You So Much.wav

Peak level 98.8 %
Track quality 100.0 %
Test CRC 62224EF5
Copy CRC 62224EF5
Cannot be verified as accurate (confidence 1) [229C283D], AccurateRip returned [43DA7F11]
Copy OK

Track 10

Filename D:\EAC\10 - You Got Everything I Need.wav

Peak level 98.8 %
Track quality 100.0 %
Test CRC 3DFAF7EC
Copy CRC 3DFAF7EC
Cannot be verified as accurate (confidence 1) [1166DC92], AccurateRip returned [A2C4AFFB]
Copy OK


No tracks could be verified as accurate
You may have a different pressing from the one(s) in the database

No errors occurred

End of status report

[CUETools log; Date: 19.05.2018 15:16:50; Version: 2.1.4]
[CTDB TOCID: XYs_gnothStZkPpuIRk5FkXmR0k-] found.
Track | CTDB Status
1 | (1/1) Accurately ripped
2 | (1/1) Accurately ripped
3 | (1/1) Accurately ripped
4 | (1/1) Accurately ripped
5 | (1/1) Accurately ripped
6 | (1/1) Accurately ripped
7 | (1/1) Accurately ripped
8 | (1/1) Accurately ripped
9 | (1/1) Accurately ripped
10 | (1/1) Accurately ripped
[AccurateRip ID: 001039fe-0082cea7-7c0b5f0a] found.
Track [ CRC | V2 ] Status
01 [6db814cc|3a931c2b] (1+0/2) Accurately ripped
02 [0c5b0591|22a64c84] (1+0/2) Accurately ripped
03 [0920d3c0|b55c6f8b] (1+0/2) Accurately ripped
04 [68cadb07|6ee62c56] (1+0/2) Accurately ripped
05 [4d2cb471|3ee2bec9] (1+0/2) Accurately ripped
06 [a0944b61|def174cc] (1+0/2) Accurately ripped
07 [baeef5f4|42f28733] (1+0/2) Accurately ripped
08 [593d4aae|8cac88fe] (1+0/2) Accurately ripped
09 [229c283d|06db2cec] (1+0/2) Accurately ripped
10 [1166dc92|051a958d] (1+0/2) Accurately ripped
Offsetted by 664:
01 [eb1f1de7] (1/2) Accurately ripped
02 [c5845fa4] (1/2) Accurately ripped
03 [4c826403] (1/2) Accurately ripped
04 [2cf86781] (1/2) Accurately ripped
05 [425bc838] (1/2) Accurately ripped
06 [bdba2283] (1/2) Accurately ripped
07 [db075946] (1/2) Accurately ripped
08 [eef94f9a] (1/2) Accurately ripped
09 [43da7f11] (1/2) Accurately ripped
10 [a2c4affb] (1/2) Accurately ripped

Track Peak [ CRC32 ] [W/O NULL] [ LOG ]
– 98,8 [5B4AE256] [6CE683D0]
01 98,8 [875FA095] [7E235404] CRC32
02 98,8 [56FF9F15] [64E0DFA2] CRC32
03 98,8 [C1A70B6B] [1322B9F9] CRC32
04 98,8 [94FB37E5] [87CB3C02] CRC32
05 98,8 [8C4EBE81] [0234419F] CRC32
06 98,8 [1ED55DBB] [0335D179] CRC32
07 98,8 [E59B72BA] [2B3FC4E0] CRC32
08 98,8 [F77B5FBD] [33FA6BEB] CRC32
09 98,8 [62224EF5] [BCAA34CE] CRC32
10 98,8 [3DFAF7EC] [B4EB457A] CRC32

foobar2000 1.2 / Dynamic Range Meter 1.1.1
log date: 2018-05-19 15:22:49

––––––––––––––––––––––––––––––––––––––––
Analyzed: Moby Grape / Live Grape
––––––––––––––––––––––––––––––––––––––––

DR Peak RMS Duration Track
––––––––––––––––––––––––––––––––––––––––
DR12 -0.10 dB -13.73 dB 4:52 01-That Lost Horizon
DR10 -0.10 dB -11.94 dB 2:38 02-Here I Sit
DR9 -0.10 dB -10.22 dB 5:21 03-Honky Tonk
DR10 -0.10 dB -11.28 dB 4:54 04-Cuttin' In
DR10 -0.10 dB -11.55 dB 3:35 05-Must Be Going' Now Dear
DR9 -0.10 dB -10.62 dB 3:13 06-Your Rider
DR10 -0.10 dB -10.70 dB 3:53 07-Up In The Air
DR10 -0.10 dB -11.33 dB 5:01 08-Set Me Down Easy
DR11 -0.10 dB -12.22 dB 3:37 09-Love You So Much
DR8 -0.10 dB -9.53 dB 11:28 10-You Got Everything I Need
––––––––––––––––––––––––––––––––––––––––

Number of tracks: 10
Official DR value: DR10

Samplerate: 44100 Hz
Channels: 2
Bits per sample: 16
Bitrate: 927 kbps
Codec: FLAC
================================================================================

Moby Grape - Live Grape (1978) Remastered 2007

Moby Grape - Live Grape (1978) Remastered 2007