Subcategories

Moby - Everything Was Beautiful, And Nothing Hurt (2018)

Posted By: SERTiL
Moby - Everything Was Beautiful, And Nothing Hurt (2018)

Moby - Everything Was Beautiful, And Nothing Hurt (2018)
EAC Rip | FLAC (tracks)+cue, log, front cover | 332 MB
Label: Little Idiot ‎– IDIOT 60CD | Tracks: 12 | Time: 56:31 min
Electronic, Alternative

Moby has released a new single and video for “Like a Motherless Child,” from his forthcoming album Everything Was Beautiful, And Nothing Hurt. Featuring LA-based soulstress Raquel Rodriguez, “Like a Motherless Child” is a re-work of the well-known spiritual, with its origins in the slavery of the American South. The track describes the void left when one feels separated from a parent, higher power or similar guiding force. Over the years this powerful song has been reinterpreted by the likes of Odetta, Lena Horne, Mahalia Jackson and Van Morrison. The album is a glowing tapestry exploring spirituality, individuality and the brokenness of humanity and finds him returning to his orchestral, soul, trip-hop and gospel roots.



Tracklist:
1. Mere Anarchy 5:15
2. The Waste of Suns 4:44
3. Like a Motherless Child 4:37
4. The Last of Goodbyes 4:23
5. The Ceremony of Innocence 3:56
6. The Tired and the Hurt 4:28
7. Welcome to Hard Times 5:08
8. The Sorrow Tree 4:28
9. Falling Rain and Light 4:46
10. The Middle is Gone 5:13
11. This Wild Darkness 4:09
12. A Dark Cloud is Coming 5:24

Exact Audio Copy V1.3 from 2. September 2016

EAC extraction logfile from 1. March 2018, 20:39

Moby / Everything Was Beautiful, And Nothing Hurt

Used drive : TSSTcorpCD/DVDW SH-S182D Adapter: 1 ID: 0

Read mode : Secure
Utilize accurate stream : Yes
Defeat audio cache : Yes
Make use of C2 pointers : No

Read offset correction : 6
Overread into Lead-In and Lead-Out : No
Fill up missing offset samples with silence : Yes
Delete leading and trailing silent blocks : No
Null samples used in CRC calculations : Yes
Used interface : Native Win32 interface for Win NT & 2000
Gap handling : Appended to previous track

Used output format : User Defined Encoder
Selected bitrate : 896 kBit/s
Quality : High
Add ID3 tag : No
Command line compressor : F:\flac.exe
Additional command line options : -8 -V -T "ARTIST=%artist%" -T "TITLE=%title%" -T "ALBUM=%albumtitle%" -T "DATE=%year%" -T "TRACKNUMBER=%tracknr%" -T "GENRE=%genre%" -T "COMMENT=Ripped by waddaw" -T "BAND=%albuminterpret%" -T "ALBUMARTIST=%albuminterpret%" -T "COMPOSER=%composer%" %haslyrics%–tag-from-file=LYRICS="%lyricsfile%"%haslyrics% -T "DISCNUMBER=%cdnumber%" -T "TOTALDISCS=%totalcds%" -T "TOTALTRACKS=%numtracks%" %hascover%–picture="%coverfile%"%hascover% %source% -o %dest%


TOC of the extracted CD

Track | Start | Length | Start sector | End sector
––––––––––––––––––––––––––––-
1 | 0:00.00 | 5:15.06 | 0 | 23630
2 | 5:15.06 | 4:44.41 | 23631 | 44971
3 | 9:59.47 | 4:37.04 | 44972 | 65750
4 | 14:36.51 | 4:23.43 | 65751 | 85518
5 | 19:00.19 | 3:56.40 | 85519 | 103258
6 | 22:56.59 | 4:28.10 | 103259 | 123368
7 | 27:24.69 | 5:08.69 | 123369 | 146537
8 | 32:33.63 | 4:28.44 | 146538 | 166681
9 | 37:02.32 | 4:46.28 | 166682 | 188159
10 | 41:48.60 | 5:13.07 | 188160 | 211641
11 | 47:01.67 | 4:09.21 | 211642 | 230337
12 | 51:11.13 | 5:24.68 | 230338 | 254705


Track 1

Filename K:\Moby - Everything Was Beautiful, And Nothing Hurt (2018) [FLAC CD]\01 - Mere Anarchy.wav

Pre-gap length 0:00:02.00

Peak level 99.5 %
Extraction speed 4.4 X
Track quality 99.9 %
Test CRC 5D11C29D
Copy CRC 5D11C29D
Copy OK

Track 2

Filename K:\Moby - Everything Was Beautiful, And Nothing Hurt (2018) [FLAC CD]\02 - The Waste of Suns.wav

Peak level 97.8 %
Extraction speed 4.9 X
Track quality 99.9 %
Test CRC C3F33365
Copy CRC C3F33365
Copy OK

Track 3

Filename K:\Moby - Everything Was Beautiful, And Nothing Hurt (2018) [FLAC CD]\03 - Like a Motherless Child.wav

Peak level 98.5 %
Extraction speed 5.9 X
Track quality 100.0 %
Test CRC 0BD28130
Copy CRC 0BD28130
Copy OK

Track 4

Filename K:\Moby - Everything Was Beautiful, And Nothing Hurt (2018) [FLAC CD]\04 - The Last of Goodbyes.wav

Peak level 98.1 %
Extraction speed 5.6 X
Track quality 99.9 %
Test CRC 2E66811B
Copy CRC 2E66811B
Copy OK

Track 5

Filename K:\Moby - Everything Was Beautiful, And Nothing Hurt (2018) [FLAC CD]\05 - The Ceremony of Innocence.wav

Peak level 98.1 %
Extraction speed 6.3 X
Track quality 100.0 %
Test CRC 3FC5EE96
Copy CRC 3FC5EE96
Copy OK

Track 6

Filename K:\Moby - Everything Was Beautiful, And Nothing Hurt (2018) [FLAC CD]\06 - The Tired and the Hurt.wav

Peak level 98.5 %
Extraction speed 6.7 X
Track quality 100.0 %
Test CRC 3A4E8511
Copy CRC 3A4E8511
Copy OK

Track 7

Filename K:\Moby - Everything Was Beautiful, And Nothing Hurt (2018) [FLAC CD]\07 - Welcome to Hard Times.wav

Peak level 100.0 %
Extraction speed 7.2 X
Track quality 100.0 %
Test CRC 317B9675
Copy CRC 317B9675
Copy OK

Track 8

Filename K:\Moby - Everything Was Beautiful, And Nothing Hurt (2018) [FLAC CD]\08 - The Sorrow Tree.wav

Peak level 100.0 %
Extraction speed 6.7 X
Track quality 99.9 %
Test CRC E518E7CA
Copy CRC E518E7CA
Copy OK

Track 9

Filename K:\Moby - Everything Was Beautiful, And Nothing Hurt (2018) [FLAC CD]\09 - Falling Rain and Light.wav

Peak level 98.1 %
Extraction speed 7.9 X
Track quality 100.0 %
Test CRC 7288BD5E
Copy CRC 7288BD5E
Copy OK

Track 10

Filename K:\Moby - Everything Was Beautiful, And Nothing Hurt (2018) [FLAC CD]\10 - The Middle is Gone.wav

Peak level 97.9 %
Extraction speed 8.0 X
Track quality 100.0 %
Test CRC 52249049
Copy CRC 52249049
Copy OK

Track 11

Filename K:\Moby - Everything Was Beautiful, And Nothing Hurt (2018) [FLAC CD]\11 - This Wild Darkness.wav

Peak level 98.2 %
Extraction speed 8.2 X
Track quality 100.0 %
Test CRC 0485C8C0
Copy CRC 0485C8C0
Copy OK

Track 12

Filename K:\Moby - Everything Was Beautiful, And Nothing Hurt (2018) [FLAC CD]\12 - A Dark Cloud is Coming.wav

Peak level 98.1 %
Extraction speed 8.6 X
Track quality 100.0 %
Test CRC 50044D7A
Copy CRC 50044D7A
Copy OK

No errors occurred

End of status report

–– AcoustID Plugin V1.2.0

Total fingerprints: 12


–– CUETools DB Plugin V2.1.6

[CTDB TOCID: 9hJyGB21pHGCJzbsFxRW2SYOkGg-] found
Submit result: 9hJyGB21pHGCJzbsFxRW2SYOkGg- has been confirmed
Track | CTDB Status
1 | (2/2) Accurately ripped
2 | (2/2) Accurately ripped
3 | (2/2) Accurately ripped
4 | (2/2) Accurately ripped
5 | (2/2) Accurately ripped
6 | (2/2) Accurately ripped
7 | (2/2) Accurately ripped
8 | (2/2) Accurately ripped
9 | (2/2) Accurately ripped
10 | (2/2) Accurately ripped
11 | (2/2) Accurately ripped
12 | (2/2) Accurately ripped


==== Log checksum DB7511F37C46B7FF2707041FABD18D57A064F4BABD9840B270B2D8B6A77D0C18 ====


Thanks to the Original customer.