Subcategories
Tags
Language
Tags

Moby - Last Night: Remixed (2008)

Posted By: gribovar
Moby - Last Night: Remixed (2008)

Moby - Last Night: Remixed (2008)
EAC Rip | FLAC (tracks+.cue+log) - 543 MB | MP3 CBR 320 kbps (LAME 3.93) - 178 MB | Covers - 101 MB
Genre: House | RAR 3% Rec. | Label: Mute Records (LCDSTUMM275)

Last Night (2008) was Moby’s triumphant return to club music after dabbling in guitar-driven rock and moody instrumentals. The album channeled the decadent spirit of New York’s proto-house and garage, and represented something of a return to Moby’s pre-rave roots as an active participant in the city’s club scene. Last Night Remixed brings together electronica’s finest producers for brand new remixes of songs off Last Night. Featuring energetic mixes from upstarts such as Holy Ghost! and veteran producers General Midi, Remixed is a lively excursion through cutting edge dance with a nostalgic heart.
Tracklist:
01. I Love to Move in Here (Holy Ghost! remix)
02. Ooh Yeah (Kris Menace remix)
03. Live for Tomorrow (Tocadisco remix)
04. I'm in Love (The Shapeshifters Maximal remix)
05. Disco Lies (Freemasons club mix)
06. I Love to Move in Here (Seamus Haji club mix)
07. Alice (General Midi remix)
08. The Stars (AC Slater remix)
09. Disco Lies (Spencer & Hill remix)
10. Alice (Drop the Lime Heavy Bass remix)
11. Ooh Yeah (D. Ramirez Haunted Playground remix)
12. I'm in Love (Mason's Glowsticks mix)
13. I Love to Move in Here (Style of Eye Piano remix)
14. Last Night

Total time: 01:14:23

Exact Audio Copy V1.3 from 2. September 2016

EAC extraction logfile from 1. July 2018, 15:46

Moby / Last Night Remixed

Used drive : PIONEER DVD-RW DVR-215 Adapter: 1 ID: 2

Read mode : Secure
Utilize accurate stream : Yes
Defeat audio cache : Yes
Make use of C2 pointers : No

Read offset correction : 48
Overread into Lead-In and Lead-Out : No
Fill up missing offset samples with silence : Yes
Delete leading and trailing silent blocks : No
Null samples used in CRC calculations : Yes
Used interface : Native Win32 interface for Win NT & 2000
Gap handling : Appended to previous track

Used output format : User Defined Encoder
Selected bitrate : 1024 kBit/s
Quality : High
Add ID3 tag : No
Command line compressor : C:\Program Files (x86)\Exact Audio Copy\FLAC\FLAC.EXE
Additional command line options : -6 -V -T "COMMENT=Ripped by RRC for new-team org" -T "ARTIST=%artist%" -T "TITLE=%title%" -T "ALBUM=%albumtitle%" -T "DATE=%year%" -T "TRACKNUMBER=%tracknr%" -T "GENRE=%genre%" -T "BAND=%albuminterpret%" -T "ALBUMARTIST=%albuminterpret%" -T "COMPOSER=%composer%" %haslyrics%–tag-from-file=LYRICS="%lyricsfile%"%haslyrics% -T "DISCNUMBER=%cdnumber%" -T "TOTALDISCS=%totalcds%" -T "TOTALTRACKS=%numtracks%" %hascover%–picture="%coverfile%"%hascover% %source%


TOC of the extracted CD

Track | Start | Length | Start sector | End sector
––––––––––––––––––––––––––––-
1 | 0:00.00 | 5:03.59 | 0 | 22783
2 | 5:03.59 | 3:51.15 | 22784 | 40123
3 | 8:54.74 | 5:19.17 | 40124 | 64065
4 | 14:14.16 | 7:03.04 | 64066 | 95794
5 | 21:17.20 | 5:32.50 | 95795 | 120744
6 | 26:49.70 | 6:01.57 | 120745 | 147876
7 | 32:51.52 | 5:15.22 | 147877 | 171523
8 | 38:06.74 | 4:36.66 | 171524 | 192289
9 | 42:43.65 | 5:27.44 | 192290 | 216858
10 | 48:11.34 | 3:15.04 | 216859 | 231487
11 | 51:26.38 | 5:49.55 | 231488 | 257717
12 | 57:16.18 | 5:25.43 | 257718 | 282135
13 | 62:41.61 | 5:53.73 | 282136 | 308683
14 | 68:35.59 | 5:47.25 | 308684 | 334733


Track 1

Filename E:\RRCLtd Rip\01-I Love to Move in Here (Holy Ghost! remix).wav

Pre-gap length 0:00:02.00

Peak level 100.0 %
Extraction speed 4.5 X
Track quality 99.9 %
Test CRC 8C358BCE
Copy CRC 8C358BCE
Accurately ripped (confidence 29) [5B1F5046] (AR v2)
Copy OK

Track 2

Filename E:\RRCLtd Rip\02-Ooh Yeah (Kris Menace remix).wav

Pre-gap length 0:00:00.03

Peak level 100.0 %
Extraction speed 5.3 X
Track quality 100.0 %
Test CRC 885EB270
Copy CRC 885EB270
Accurately ripped (confidence 29) [A50D8390] (AR v2)
Copy OK

Track 3

Filename E:\RRCLtd Rip\03-Live for Tomorrow (Tocadisco remix).wav

Pre-gap length 0:00:00.01

Peak level 100.0 %
Extraction speed 5.9 X
Track quality 100.0 %
Test CRC AE5D02CF
Copy CRC AE5D02CF
Accurately ripped (confidence 29) [0EEEC7D8] (AR v2)
Copy OK

Track 4

Filename E:\RRCLtd Rip\04-I'm in Love (The Shapeshifters Maximal remix).wav

Pre-gap length 0:00:00.02

Peak level 100.0 %
Extraction speed 6.6 X
Track quality 100.0 %
Test CRC FFEB6C97
Copy CRC FFEB6C97
Accurately ripped (confidence 29) [7E4268BD] (AR v2)
Copy OK

Track 5

Filename E:\RRCLtd Rip\05-Disco Lies (Freemasons club mix).wav

Pre-gap length 0:00:00.03

Peak level 100.0 %
Extraction speed 6.4 X
Track quality 99.9 %
Test CRC 7010FB0B
Copy CRC 7010FB0B
Accurately ripped (confidence 29) [AB861AB7] (AR v2)
Copy OK

Track 6

Filename E:\RRCLtd Rip\06-I Love to Move in Here (Seamus Haji club mix).wav

Pre-gap length 0:00:00.03

Peak level 100.0 %
Extraction speed 7.5 X
Track quality 100.0 %
Test CRC 30D1ADF9
Copy CRC 30D1ADF9
Accurately ripped (confidence 29) [415A7EB8] (AR v2)
Copy OK

Track 7

Filename E:\RRCLtd Rip\07-Alice (General Midi remix).wav

Pre-gap length 0:00:00.03

Peak level 100.0 %
Extraction speed 7.7 X
Track quality 100.0 %
Test CRC DFDEBF0F
Copy CRC DFDEBF0F
Accurately ripped (confidence 29) [96766DCB] (AR v2)
Copy OK

Track 8

Filename E:\RRCLtd Rip\08-The Stars (AC Slater remix).wav

Pre-gap length 0:00:00.03

Peak level 100.0 %
Extraction speed 7.1 X
Track quality 99.9 %
Test CRC 1352A7B3
Copy CRC 1352A7B3
Accurately ripped (confidence 29) [3078DBC2] (AR v2)
Copy OK

Track 9

Filename E:\RRCLtd Rip\09-Disco Lies (Spencer & Hill remix).wav

Pre-gap length 0:00:00.03

Peak level 100.0 %
Extraction speed 8.3 X
Track quality 100.0 %
Test CRC E966AB37
Copy CRC E966AB37
Accurately ripped (confidence 29) [66255CCE] (AR v2)
Copy OK

Track 10

Filename E:\RRCLtd Rip\10-Alice (Drop the Lime Heavy Bass remix).wav

Pre-gap length 0:00:00.03

Peak level 100.0 %
Extraction speed 8.0 X
Track quality 100.0 %
Test CRC 43CC1B10
Copy CRC 43CC1B10
Accurately ripped (confidence 29) [8E6CF75A] (AR v2)
Copy OK

Track 11

Filename E:\RRCLtd Rip\11-Ooh Yeah (D. Ramirez Haunted Playground remix).wav

Pre-gap length 0:00:00.03

Peak level 100.0 %
Extraction speed 8.9 X
Track quality 100.0 %
Test CRC FEEE89C9
Copy CRC FEEE89C9
Accurately ripped (confidence 29) [0583D4B0] (AR v2)
Copy OK

Track 12

Filename E:\RRCLtd Rip\12-I'm in Love (Mason's Glowsticks mix).wav

Pre-gap length 0:00:00.03

Peak level 100.0 %
Extraction speed 9.2 X
Track quality 100.0 %
Test CRC BEA803CC
Copy CRC BEA803CC
Accurately ripped (confidence 29) [5AB89933] (AR v2)
Copy OK

Track 13

Filename E:\RRCLtd Rip\13-I Love to Move in Here (Style of Eye Piano remix).wav

Pre-gap length 0:00:00.03

Peak level 100.0 %
Extraction speed 9.4 X
Track quality 100.0 %
Test CRC E7445BC5
Copy CRC E7445BC5
Accurately ripped (confidence 29) [C0C76C5B] (AR v2)
Copy OK

Track 14

Filename E:\RRCLtd Rip\14-Last Night.wav

Pre-gap length 0:00:00.03

Peak level 92.1 %
Extraction speed 9.6 X
Track quality 100.0 %
Test CRC CD40A6BB
Copy CRC CD40A6BB
Accurately ripped (confidence 28) [FACE8C38] (AR v2)
Copy OK


All tracks accurately ripped

No errors occurred

End of status report

–– CUETools DB Plugin V2.1.6

[CTDB TOCID: J7gEr53ciz36JEhkuppXAUrsEMg-] found
Submit result: J7gEr53ciz36JEhkuppXAUrsEMg- has been confirmed
Track | CTDB Status
1 | (45/45) Accurately ripped
2 | (45/45) Accurately ripped
3 | (45/45) Accurately ripped
4 | (45/45) Accurately ripped
5 | (45/45) Accurately ripped
6 | (45/45) Accurately ripped
7 | (45/45) Accurately ripped
8 | (45/45) Accurately ripped
9 | (45/45) Accurately ripped
10 | (45/45) Accurately ripped
11 | (45/45) Accurately ripped
12 | (45/45) Accurately ripped
13 | (45/45) Accurately ripped
14 | (45/45) Accurately ripped


==== Log checksum 032EB9EA2E845EEB89BE621A785F27CEAFEA0292CDB8F2C9D3D09258660381A8 ====

[CUETools log; Date: 23.04.2021 14:41:43; Version: 2.1.4]
[CTDB TOCID: J7gEr53ciz36JEhkuppXAUrsEMg-] found.
Track | CTDB Status
1 | (65/65) Accurately ripped
2 | (65/65) Accurately ripped
3 | (65/65) Accurately ripped
4 | (65/65) Accurately ripped
5 | (65/65) Accurately ripped
6 | (65/65) Accurately ripped
7 | (65/65) Accurately ripped
8 | (65/65) Accurately ripped
9 | (64/65) Accurately ripped
10 | (64/65) Accurately ripped
11 | (65/65) Accurately ripped
12 | (65/65) Accurately ripped
13 | (65/65) Accurately ripped
14 | (65/65) Accurately ripped
[AccurateRip ID: 0025f228-01959a0f-dc116f0e] found.
Track [ CRC | V2 ] Status
01 [b3eb3443|5b1f5046] (27+32/62) Accurately ripped
02 [51e7cd14|a50d8390] (27+32/62) Accurately ripped
03 [5808adab|0eeec7d8] (27+32/62) Accurately ripped
04 [bacec147|7e4268bd] (27+32/62) Accurately ripped
05 [5389434c|ab861ab7] (27+32/62) Accurately ripped
06 [411b6464|415a7eb8] (27+32/62) Accurately ripped
07 [067985d6|96766dcb] (27+32/62) Accurately ripped
08 [fbc3371a|3078dbc2] (27+32/62) Accurately ripped
09 [c33b0761|66255cce] (27+32/62) Accurately ripped
10 [10b6015e|8e6cf75a] (26+32/61) Accurately ripped
11 [a3c17834|0583d4b0] (27+32/62) Accurately ripped
12 [d065b9f4|5ab89933] (27+32/62) Accurately ripped
13 [65a57925|c0c76c5b] (27+32/62) Accurately ripped
14 [7ffdfccb|face8c38] (27+31/61) Accurately ripped
Offsetted by -676:
01 [ad7f0a99] (03/62) Accurately ripped
02 [a46e7c67] (03/62) Accurately ripped
03 [80393b9a] (03/62) Accurately ripped
04 [9c56b4f8] (03/62) Accurately ripped
05 [58658bdd] (03/62) Accurately ripped
06 [287bd31d] (03/62) Accurately ripped
07 [a91f0292] (03/62) Accurately ripped
08 [3684a1ba] (03/62) Accurately ripped
09 [6543d3f6] (03/62) Accurately ripped
10 [927f4fe0] (03/61) Accurately ripped
11 [af8abb62] (03/62) Accurately ripped
12 [e82df67e] (03/62) Accurately ripped
13 [63698549] (03/62) Accurately ripped
14 [586efe3d] (03/61) Accurately ripped

Track Peak [ CRC32 ] [W/O NULL] [ LOG ]
– 100,0 [3B7CA4B0] [E78B0ECE]
01 100,0 [8C358BCE] [5DAA836A] CRC32
02 100,0 [885EB270] [E6FC0CC8] CRC32
03 100,0 [AE5D02CF] [2410BB01] CRC32
04 100,0 [FFEB6C97] [FA598ABB] CRC32
05 100,0 [7010FB0B] [6E3197C4] CRC32
06 100,0 [30D1ADF9] [BFD2A06C] CRC32
07 100,0 [DFDEBF0F] [72B5ED16] CRC32
08 100,0 [1352A7B3] [539BEC8D] CRC32
09 100,0 [E966AB37] [75602483] CRC32
10 100,0 [43CC1B10] [16583B76] CRC32
11 100,0 [FEEE89C9] [7454A8F3] CRC32
12 100,0 [BEA803CC] [D82D098E] CRC32
13 100,0 [E7445BC5] [52229FDA] CRC32
14 92,1 [CD40A6BB] [EF341D0D] CRC32

Thanks to RRC

See also: