Subcategories

VA - A Monstrous Psychedelic Bubble Exploding in Your Mind (2010)

Posted By: v3122
VA - A Monstrous Psychedelic Bubble Exploding in Your Mind (2010)

VA - A Monstrous Psychedelic Bubble Exploding in Your Mind (2010)
EAC | Flac(Image) + Cue + Log & MP3 CBR 320Kbps
Mojo Magazine, February 2010 | ~ 306 or 126 Mb | Scans(png) -> 78 Mb
Psychedelic Rock / Folk Rock / Ambient

Best MOJO disc evah! 14 tracks of new and old psych beautifully sequenced by Amorphous Androgynous (aka Future Sound of London), seamlessly blended to make a singular DJ flow. The best thing is that most of the songs haven't really been altered much, except for editing to make them segue together. No fake rhythm track added either. This might be the most natural-sounding DJ mix of this type I've ever had the pleasure to hear. A few of these songs have appeared on other "Psychedelic Bubble" releases, while others seem to be unique to this set…

by groonrikk, rateyourmusic.com
VA - A Monstrous Psychedelic Bubble Exploding in Your Mind (2010):

VA - A Monstrous Psychedelic Bubble Exploding in Your Mind (2010)

Tracklist:

01. Pop Levi - Blue Honey (3:57)
02. The Yellow Moon Band - Entangled (2:21)
03. July - Dandelion Seeds (4:22)
04. Amorphous Androgynous - Falling Down (5:28)
05. Dungen - Satt Att Se (Instrumental) (4:47)
06. Donovan - Three Kingfishers (3:05)
07. Can - Flow Motion (4:02)
08. White Noise - Love Without Sound (2:52)
09. Betty Davis - Game Is My Middle Name (3:25)
10. Ed Askew - Love Is Everyone (1:53)
11. Jean Claude Vannier - Les Mouches (3:31)
12. Comus - Diana (4:26)
13. Shogun Kunitoki - Mulberg (3:55)
14. Amorphous Androgynous - Opus of the Black Sun (5:16)

Converted to Image (CUETools 2.1.4)

Exact Audio Copy V1.0 beta 3 from 29. August 2011

EAC extraction logfile from 1. September 2013, 20:40

Various Artists / A Monstrous Psychedelic Bubble Exploding in Your Mind

Used drive : ATAPI iHAS120 X Adapter: 6 ID: 0

Read mode : Secure
Utilize accurate stream : Yes
Defeat audio cache : Yes
Make use of C2 pointers : No

Read offset correction : 48
Overread into Lead-In and Lead-Out : No
Fill up missing offset samples with silence : Yes
Delete leading and trailing silent blocks : No
Null samples used in CRC calculations : Yes
Used interface : Native Win32 interface for Win NT & 2000
Gap handling : Appended to previous track

Used output format : User Defined Encoder
Selected bitrate : 128 kBit/s
Quality : High
Add ID3 tag : No
Command line compressor : C:\Program Files\Exact Audio Copy\Flac\flac.exe
Additional command line options : -8 -V -T "ARTIST=%artist%" -T "TITLE=%title%" -T "ALBUM=%albumtitle%" -T "DATE=%year%" -T "TRACKNUMBER=%tracknr%" -T "TOTALTRACKS=%numtracks%" -T "GENRE=%genre%" -T "ALBUMARTIST=%albumartist%" -T "ALBUM ARTIST=%albumartist%" -T "COMMENT=EAC Secure Mode, Test & Copy, AccurateRip, FLAC -8" %source%


TOC of the extracted CD

Track | Start | Length | Start sector | End sector
––––––––––––––––––––––––––––-
1 | 0:00.00 | 3:57.59 | 0 | 17833
2 | 3:57.59 | 2:21.02 | 17834 | 28410
3 | 6:18.61 | 4:22.07 | 28411 | 48067
4 | 10:40.68 | 5:28.12 | 48068 | 72679
5 | 16:09.05 | 4:47.60 | 72680 | 94264
6 | 20:56.65 | 3:05.34 | 94265 | 108173
7 | 24:02.24 | 4:02.11 | 108174 | 126334
8 | 28:04.35 | 2:52.16 | 126335 | 139250
9 | 30:56.51 | 3:25.49 | 139251 | 154674
10 | 34:22.25 | 1:53.53 | 154675 | 163202
11 | 36:16.03 | 3:31.57 | 163203 | 179084
12 | 39:47.60 | 4:26.59 | 179085 | 199093
13 | 44:14.44 | 3:55.34 | 199094 | 216752
14 | 48:10.03 | 5:16.05 | 216753 | 240457


Track 1

Filename D:\flac\A Monstrous Psychedelic Bubble Exploding in Your Mind\01 - Pop Levi - Blue Honey.wav

Pre-gap length 0:00:02.00

Peak level 51.6 %
Extraction speed 2.5 X
Track quality 100.0 %
Test CRC 0A56E073
Copy CRC 0A56E073
Accurately ripped (confidence 13) [342A1297] (AR v2)
Copy OK

Track 2

Filename D:\flac\A Monstrous Psychedelic Bubble Exploding in Your Mind\02 - The Yellow Moon Band - Entangled.wav

Peak level 64.6 %
Extraction speed 2.5 X
Track quality 100.0 %
Test CRC 62DE596C
Copy CRC 62DE596C
Accurately ripped (confidence 13) [83027571] (AR v2)
Copy OK

Track 3

Filename D:\flac\A Monstrous Psychedelic Bubble Exploding in Your Mind\03 - July - Dandelion Seeds.wav

Peak level 46.0 %
Extraction speed 3.0 X
Track quality 100.0 %
Test CRC 73DBCAED
Copy CRC 73DBCAED
Accurately ripped (confidence 13) [798FE169] (AR v2)
Copy OK

Track 4

Filename D:\flac\A Monstrous Psychedelic Bubble Exploding in Your Mind\04 - Amorphous Androgynous - Falling Down.wav

Peak level 58.3 %
Extraction speed 3.3 X
Track quality 100.0 %
Test CRC DB33026D
Copy CRC DB33026D
Accurately ripped (confidence 13) [99499431] (AR v2)
Copy OK

Track 5

Filename D:\flac\A Monstrous Psychedelic Bubble Exploding in Your Mind\05 - Dungen - Satt Att Se (Instrumental).wav

Peak level 54.2 %
Extraction speed 3.2 X
Track quality 99.9 %
Test CRC 59C48230
Copy CRC 59C48230
Accurately ripped (confidence 13) [5F34E4AD] (AR v2)
Copy OK

Track 6

Filename D:\flac\A Monstrous Psychedelic Bubble Exploding in Your Mind\06 - Donovan - Three Kingfishers.wav

Peak level 52.0 %
Extraction speed 3.5 X
Track quality 100.0 %
Test CRC 687A114E
Copy CRC 687A114E
Accurately ripped (confidence 13) [1DBA479B] (AR v2)
Copy OK

Track 7

Filename D:\flac\A Monstrous Psychedelic Bubble Exploding in Your Mind\07 - Can - Flow Motion.wav

Peak level 58.9 %
Extraction speed 3.8 X
Track quality 100.0 %
Test CRC B6E43EF1
Copy CRC B6E43EF1
Accurately ripped (confidence 13) [1C6CFED5] (AR v2)
Copy OK

Track 8

Filename D:\flac\A Monstrous Psychedelic Bubble Exploding in Your Mind\08 - White Noise - Love Without Sound.wav

Peak level 76.3 %
Extraction speed 3.8 X
Track quality 100.0 %
Test CRC FFAE3D72
Copy CRC FFAE3D72
Accurately ripped (confidence 13) [1E6C4634] (AR v2)
Copy OK

Track 9

Filename D:\flac\A Monstrous Psychedelic Bubble Exploding in Your Mind\09 - Betty Davis - Game Is My Middle Name.wav

Peak level 73.2 %
Extraction speed 4.1 X
Track quality 100.0 %
Test CRC 5E70FBD6
Copy CRC 5E70FBD6
Accurately ripped (confidence 12) [C2B88F2D] (AR v2)
Copy OK

Track 10

Filename D:\flac\A Monstrous Psychedelic Bubble Exploding in Your Mind\10 - Ed Askew - Love Is Everyone.wav

Peak level 99.9 %
Extraction speed 3.7 X
Track quality 100.0 %
Test CRC 8DAD405C
Copy CRC 8DAD405C
Accurately ripped (confidence 12) [DD403521] (AR v2)
Copy OK

Track 11

Filename D:\flac\A Monstrous Psychedelic Bubble Exploding in Your Mind\11 - Jean Claude Vannier - Les Mouches.wav

Peak level 83.1 %
Extraction speed 4.3 X
Track quality 100.0 %
Test CRC 45C19BC5
Copy CRC 45C19BC5
Accurately ripped (confidence 12) [3ED81A21] (AR v2)
Copy OK

Track 12

Filename D:\flac\A Monstrous Psychedelic Bubble Exploding in Your Mind\12 - Comus - Diana.wav

Peak level 50.4 %
Extraction speed 4.5 X
Track quality 100.0 %
Test CRC E9FBC3EF
Copy CRC E9FBC3EF
Accurately ripped (confidence 12) [43F48C97] (AR v2)
Copy OK

Track 13

Filename D:\flac\A Monstrous Psychedelic Bubble Exploding in Your Mind\13 - Shogun Kunitoki - Mulberg.wav

Peak level 75.3 %
Extraction speed 4.6 X
Track quality 100.0 %
Test CRC 6CD8F5F8
Copy CRC 6CD8F5F8
Accurately ripped (confidence 12) [C71DA2C7] (AR v2)
Copy OK

Track 14

Filename D:\flac\A Monstrous Psychedelic Bubble Exploding in Your Mind\14 - Amorphous Androgynous - Opus of the Black Sun.wav

Peak level 68.4 %
Extraction speed 4.5 X
Track quality 99.9 %
Test CRC BA0CF042
Copy CRC BA0CF042
Accurately ripped (confidence 12) [0E94C33C] (AR v2)
Copy OK


All tracks accurately ripped

No errors occurred

End of status report

–– CUETools DB Plugin V2.1.3

[CTDB TOCID: RRsnZOJiPy.vfPBLeA_.MviZMmA-] found, Submit result: RRsnZOJiPy.vfPBLeA_.MviZMmA- has been confirmed
[7e42347a] (37/38) Accurately ripped
[5b4f38ad] (01/38) No match


==== Log checksum 961CC3F5ECBC7E22C286571B1503891E1FED6F3C7077680FA010EB237F49EB4B ====

VA - A Monstrous Psychedelic Bubble Exploding in Your Mind (2010)

All thanks go to kirjakach

Mojo in my Blog

Download VA - A Monstrous Psychedelic Bubble Exploding in Your Mind (2010):