Subcategories

Monika - Avatar (2008)

Posted By: gkimonas
Monika - Avatar (2008)

Monika - Avatar
EAC rip | Flac (Image) | Cue Sheet | Log | Full Artwork | 333 Mb
Year: 2008 | Label: Archangel Music | Genre: Pop/Rock | Greek Composers | Language: English

Just at the age of 21, Μonika presents one of the best albums of the year! Influenced by M. Xatzidakis to P.J. Harvey, 'Avatar' is an extremely personal and emotional album..

Monika - Avatar (2008)


A 23 year old student from Athens, Greece. At the age of 5 she started playing the piano and at 10 she bought her first guitar. A little later, she joined an orchestra in order to take saxophone lessons that lasted 5 years. She can also play some accordion and drums. She used to be a member of her brother’s band “Serpentine” where she did some basic vocals and played the electric guitar. A year later, she came to Athens to study mathematics and started recording some songs in her computer. At the same time, she became a member of “Relevant Box” where she played the saxophone and did backing vocals. In the summer of 2005, she recorded some stuff for “My Wet Calvin” and in February she recorded a saxophone piece for the band “MENTA”. Her first single “Over the Hill” was released in early May 2008 and her debut album “Avatar” in the 19th of the same month.

Monika - Avatar (2008)



Tracklist

01. Favourite
02. Bloody Sth
03. Are you coming with us?
04. Babe
05. Pretend
06. Obsession
07. To no avail
08. Excuse my friends (fallacy)
09. Over the hill
10. Avatar
11. Not young in my youth
12. Misery loves company
13. Fraud



Exact Audio Copy V0.99 prebeta 4 from 23. January 2008

EAC extraction logfile from 29. June 2008, 3:51

Monika / Avatar

Used drive : PIONEER DVD-RW DVR-112D Adapter: 1 ID: 1

Read mode : Secure
Utilize accurate stream : Yes
Defeat audio cache : Yes
Make use of C2 pointers : No

Read offset correction : 48
Overread into Lead-In and Lead-Out : No
Fill up missing offset samples with silence : Yes
Delete leading and trailing silent blocks : No
Null samples used in CRC calculations : Yes
Used interface : Installed external ASPI interface

Used output format : User Defined Encoder
Selected bitrate : 128 kBit/s
Quality : High
Add ID3 tag : Yes
Command line compressor : C:\Program Files\Exact Audio Copy\Flac\flac.exe
Additional command line options : –best -V -T "artist=%a" -T "title=%t" -T "album=%g" -T "date=%y" -T "tracknumber=%n" -T "genre=%m" -T "comment=EAC 0.99pb4(Secure) | OO" %s


TOC of the extracted CD

Track | Start | Length | Start sector | End sector
––––––––––––––––––––––––––––-
1 | 0:00.00 | 3:03.02 | 0 | 13726
2 | 3:03.02 | 5:03.55 | 13727 | 36506
3 | 8:06.57 | 4:29.35 | 36507 | 56716
4 | 12:36.17 | 4:20.21 | 56717 | 76237
5 | 16:56.38 | 3:53.53 | 76238 | 93765
6 | 20:50.16 | 2:27.51 | 93766 | 104841
7 | 23:17.67 | 3:47.65 | 104842 | 121931
8 | 27:05.57 | 5:24.32 | 121932 | 146263
9 | 32:30.14 | 4:34.68 | 146264 | 166881
10 | 37:05.07 | 3:11.74 | 166882 | 181280
11 | 40:17.06 | 4:22.30 | 181281 | 200960
12 | 44:39.36 | 5:30.49 | 200961 | 225759
13 | 50:10.10 | 4:55.64 | 225760 | 247948


Range status and errors

Selected range

Filename J:\$$$ READY TO BURN\MONIKA - 2008 - AVATAR @ FLAC\Monika - Avatar.wav

Peak level 100.0 %
Range quality 99.9 %
Copy CRC 94F127EB
Copy OK

No errors occurred


AccurateRip summary

Track 1 not present in database
Track 2 not present in database
Track 3 not present in database
Track 4 not present in database
Track 5 not present in database
Track 6 not present in database
Track 7 not present in database
Track 8 not present in database
Track 9 not present in database
Track 10 not present in database
Track 11 not present in database
Track 12 not present in database
Track 13 not present in database

None of the tracks are present in the AccurateRip database

End of status report



Rapidshare Links (100 Mb rar parts)

Avatar - Part 1 || Part 2 || Part 3 || Part 4



Enjoy!