Tags
Language
Tags

Moon Halo - Chroma (2020)

Posted By: gribovar
Moon Halo - Chroma (2020)

Moon Halo - Chroma (2020)
EAC Rip | FLAC (image+.cue+log) - 402 MB | MP3 CBR 320 kbps (LAME 3.93) - 141 MB | Covers - 38 MB
Genre: Neo-Progressive Rock | RAR 3% Rec. | Label: Moonhalomusic (MHM001)

Moon Halo's debut album "Chroma" comes from the creative minds of Iain Jennings (Mostly Autumn), Marc Atkinson (Riversea) and Dave Clements (Riversea). The album also includes musical assistance from Alex Cromarty (ex-Mostly Autumn/Riversea) and Martin Ledger (Heather Findlay Band). Featuring guest appearances by Anne-Marie Helder (Panic Room), Olivia Sparnenn-Josh (Mostly Autumn), Janine Atkinson (Riversea), Tammy Pawson and Mikey Gibson.
With thirteen tracks over its 60-minute running time, all lovingly crafted, the album has touches of electronica, which is certainly different, however its use is subtle and enhancing rather than being overpowering. There are still plenty of guitars in evidence to rock it up, so nothing to worry about here, rather it is far better to embrace this bold direction and let the music surround you with its elegance and its beauty. Let it draw you in to the wonderous and quietly surprising world that is Moon Halo.
Tracklist:
01. The Web
02. Seize the Day
03. Chroma
04. The Veil
05. Parachute
06. Somebody Save Us
07. Whats Your Name
08. Seventh Heaven
09. Let Me Out
10. Awoken
11. Across the Great Divide
12. Rise Up
13. Don't Let It End Like This

Total time: 01:00:04

Exact Audio Copy V1.6 from 23. October 2020

EAC extraction logfile from 21. July 2021, 23:11

Moon Halo / Chroma

Used drive : ASUS DRW-24B1LT Adapter: 1 ID: 2

Read mode : Secure
Utilize accurate stream : Yes
Defeat audio cache : Yes
Make use of C2 pointers : No

Read offset correction : 6
Overread into Lead-In and Lead-Out : No
Fill up missing offset samples with silence : Yes
Delete leading and trailing silent blocks : No
Null samples used in CRC calculations : Yes
Used interface : Native Win32 interface for Win NT & 2000

Used output format : User Defined Encoder
Selected bitrate : 1024 kBit/s
Quality : High
Add ID3 tag : No
Command line compressor : C:\Program Files (x86)\FLAC_1.3.3\Win64\flac.exe
Additional command line options : -6 -V -T "ARTIST=%artist%" -T "TITLE=%title%" -T "ALBUM=%albumtitle%" -T "DATE=%year%" -T "TRACKNUMBER=%tracknr%" -T "GENRE=%genre%" -T "COMMENT=ripped by wurensh for rutracker.org" %source% -o %dest%


TOC of the extracted CD

Track | Start | Length | Start sector | End sector
––––––––––––––––––––––––––––-
1 | 0:00.00 | 4:50.09 | 0 | 21758
2 | 4:50.09 | 4:07.59 | 21759 | 40342
3 | 8:57.68 | 2:27.68 | 40343 | 51435
4 | 11:25.61 | 6:29.00 | 51436 | 80610
5 | 17:54.61 | 4:45.43 | 80611 | 102028
6 | 22:40.29 | 3:48.57 | 102029 | 119185
7 | 26:29.11 | 3:13.34 | 119186 | 133694
8 | 29:42.45 | 4:53.36 | 133695 | 155705
9 | 34:36.06 | 5:09.45 | 155706 | 178925
10 | 39:45.51 | 4:13.20 | 178926 | 197920
11 | 43:58.71 | 5:10.24 | 197921 | 221194
12 | 49:09.20 | 4:27.56 | 221195 | 241275
13 | 53:37.01 | 6:27.36 | 241276 | 270336


Range status and errors

Selected range

Filename Y:\EAC\wurensh\Moon Halo\Moon Halo - Chroma.wav

Peak level 97.6 %
Extraction speed 8.6 X
Range quality 100.0 %
Test CRC 2FD3BE3E
Copy CRC 2FD3BE3E
Copy OK

No errors occurred


AccurateRip summary

Track 1 accurately ripped (confidence 2) [970B854A] (AR v2)
Track 2 accurately ripped (confidence 2) [2FC1E760] (AR v2)
Track 3 accurately ripped (confidence 2) [A977CDDA] (AR v2)
Track 4 accurately ripped (confidence 2) [5775DC59] (AR v2)
Track 5 accurately ripped (confidence 2) [BF84AA05] (AR v2)
Track 6 accurately ripped (confidence 2) [BCB0D3CA] (AR v2)
Track 7 accurately ripped (confidence 2) [A0470582] (AR v2)
Track 8 accurately ripped (confidence 2) [9244DEAD] (AR v2)
Track 9 accurately ripped (confidence 2) [9DC8B832] (AR v2)
Track 10 accurately ripped (confidence 2) [6A02912A] (AR v2)
Track 11 accurately ripped (confidence 2) [3BF59F28] (AR v2)
Track 12 accurately ripped (confidence 2) [6596C6B0] (AR v2)
Track 13 accurately ripped (confidence 2) [3D91FF5C] (AR v2)

All tracks accurately ripped

End of status report

==== Log checksum 7FB4B0D58A5BAF46500F9CFFBF9D80C952309CAB17062A74012FF1217E90F87D ====

[CUETools log; Date: 24.07.2021 14:47:16; Version: 2.1.4]
[CTDB TOCID: IpNNlBWDmyWKOS05FDSmjC5qAyY-] found.
Track | CTDB Status
1 | (5/5) Accurately ripped
2 | (5/5) Accurately ripped
3 | (5/5) Accurately ripped
4 | (5/5) Accurately ripped
5 | (5/5) Accurately ripped
6 | (5/5) Accurately ripped
7 | (5/5) Accurately ripped
8 | (5/5) Accurately ripped
9 | (5/5) Accurately ripped
10 | (5/5) Accurately ripped
11 | (5/5) Accurately ripped
12 | (5/5) Accurately ripped
13 | (4/5) Accurately ripped, or (1/5) differs in 48 samples @05:55:64,06:24:35
[AccurateRip ID: 001baf94-011635c6-c40e140d] found.
Track [ CRC | V2 ] Status
01 [71e6da07|970b854a] (0+2/2) Accurately ripped
02 [ebf87f2c|2fc1e760] (0+2/2) Accurately ripped
03 [bb33c190|a977cdda] (0+2/2) Accurately ripped
04 [7ffdc92a|5775dc59] (0+2/2) Accurately ripped
05 [ce8d13d0|bf84aa05] (0+2/2) Accurately ripped
06 [0c7564a8|bcb0d3ca] (0+2/2) Accurately ripped
07 [3780b4d1|a0470582] (0+2/2) Accurately ripped
08 [923c6987|9244dead] (0+2/2) Accurately ripped
09 [3132a38a|9dc8b832] (0+2/2) Accurately ripped
10 [f3b32a78|6a02912a] (0+2/2) Accurately ripped
11 [a3e0e3c9|3bf59f28] (0+2/2) Accurately ripped
12 [b3956709|6596c6b0] (0+2/2) Accurately ripped
13 [fbe79a0e|3d91ff5c] (0+2/2) Accurately ripped

Track Peak [ CRC32 ] [W/O NULL] [ LOG ]
– 97,6 [2FD3BE3E] [BFDBB65C] CRC32
01 94,8 [07057E1E] [383BC594]
02 94,8 [1E419803] [56A9A9E1]
03 60,0 [A5CB5C3E] [11F81877]
04 94,8 [6796A822] [E6C97B2D]
05 94,8 [CC979B11] [12505B45]
06 89,2 [1167E589] [F63C9E32]
07 94,8 [8045C245] [3F555B73]
08 94,8 [72737A6E] [B4D05B5F]
09 91,9 [AA72BCEC] [5F0C8026]
10 97,6 [138EB0BA] [FF76308C]
11 89,2 [BE7E50FF] [C3F4EB4A]
12 94,8 [B6E0D239] [30F87E72]
13 97,6 [DC91BB77] [D3466FFC]

Thanks to wurensh