Subcategories

Mother Black Cap - Discography [3 Studio Albums] (2006-2013)

Posted By: gribovar
Mother Black Cap - Discography [3 Studio Albums] (2006-2013)

Mother Black Cap - Discography [3 Studio Albums] (2006-2013)
EAC Rip | FLAC (image+.cue+log) - 1,04 GB | MP3 CBR 320 kbps (LAME 3.93) - 390 MB | Covers - 48 MB
Genre: Progressive Rock | RAR 3% Rec. | Label: Self-released, Cyclops

Mother Black Cap are a British five piece band playing a brand of progressive rock music with its roots firmly in the Genesis, Pendragon, Grey Lady Down and The Gift territory. The second album ("The English Way", 2009) comprises seven tracks ranging from a minute to 17 minutes, the longer tracks giving the band time and scope for thematic developments from beautiful piano to pulsing synthesizer work and great melodic guitar solos. The stunning epic opus The English Way has thoughtful lyrics about how England and its culture has changed (for the better or worse?) over the last few decades. As well as the philosophical lyrics there are instrumental passages giving dramatic and dynamic changes with power and grace. An album that will appeal to those who like both vintage and modern progressive music.
Energy (2013). After a couple of years wait Mother Black Cap follow up their acclaimed "The English Way" album with their new opus "Energy". With their own unique brand of melodic prog which at times give their songs a certain slightly English tinged elegance. The tracks have twists and turns that end up in a different direction to where you thought the melody was heading. From great keyboard and hammond work to melodic guitar breaks with guests on fiddle, flugelhorn and trumpet to augment the classic five piece line up.

Mother Black Cap - Discography [3 Studio Albums] (2006-2013)

Mother Black Cap - In The Comfort Of Your Own Home (2006)
EAC Rip | FLAC (image+.cue+log) - 434 MB | MP3 CBR 320 kbps (LAME 3.93) - 160 MB | Covers - 8 MB
Genre: Progressive Rock | RAR 3% Rec. | Label: Self-released

Tracklist:
01. Friends
02. Onwards & Upwards
03. Religion
04. Home
05. Circus
06. Thirty-Five
07. In Vino Veritas
08. Delusions Of Grandeur

Total time: 01:08:10

Exact Audio Copy V1.0 beta 2 from 29. April 2011

Отчёт EAC об извлечении, выполненном 19. декабря 2011, 12:47

Mother Black Cap / In The Comfort Of Your Own Home

Дисковод: HL-DT-STDVD-RAM GH22NP20 Adapter: 3 ID: 0

Режим чтения : Достоверность
Использование точного потока : Да
Отключение кэша аудио : Да
Использование указателей C2 : Нет

Коррекция смещения при чтении : 102
Способность читать области Lead-in и Lead-out : Нет
Заполнение пропущенных сэмплов тишиной : Да
Удаление блоков с тишиной в начале и конце : Нет
При вычислениях CRC использовались нулевые сэмплы : Да
Интерфейс : Встроенный Win32-интерфейс для Win NT/2000

Выходной формат : Пользовательский кодировщик
Выбранный битрейт : 1024 kBit/s
Качество : Высокий
Добавление ID3-тега : Да
Утилита сжатия : C:\Program Files\Exact Audio Copy\FLAC\FLAC.EXE
Дополнительные параметры : -6 -V -T "ARTIST=%artist%" -T "TITLE=%title%" -T "ALBUM=%albumtitle%" -T "DATE=%year%" -T "TRACKNUMBER=%tracknr%" -T "GENRE=%genre%" -T "COMMENT=%comment%" %hascover%–picture="%coverfile%"%hascover% %source% -o %dest%


TOC извлечённого CD

Трек | Старт | Длительность | Начальный сектор | Конечный сектор
––––––––––––––––––––––––––––––––––-
1 | 0:00.00 | 11:00.50 | 0 | 49549
2 | 11:00.50 | 11:09.60 | 49550 | 99784
3 | 22:10.35 | 8:02.55 | 99785 | 135989
4 | 30:13.15 | 3:43.35 | 135990 | 152749
5 | 33:56.50 | 5:54.51 | 152750 | 179350
6 | 39:51.26 | 8:11.01 | 179351 | 216176
7 | 48:02.27 | 5:31.29 | 216177 | 241030
8 | 53:33.56 | 14:35.57 | 241031 | 306712


Характеристики диапазона извлечения и сообщения об ошибках

Выбранный диапазон

Имя файла D:\PARS\My Music\Mother Black Cap\Mother Black Cap-In The Comfort Of Your Own Home(2006)\Mother Black Cap - In The Comfort Of Your Own Home.wav

Пиковый уровень 100.0 %
Скорость извлечения 3.0 X
Качество диапазона 100.0 %
CRC копии 11590B20
Копирование… OK

Ошибок не произошло


AccurateRip: сводка

Трек 1 : извлечено точно (доверие 3) [5E4C966E] (AR v1)
Трек 2 : извлечено точно (доверие 3) [BDF84E6D] (AR v1)
Трек 3 : извлечено точно (доверие 3) [42E8F52D] (AR v1)
Трек 4 : извлечено точно (доверие 3) [2AE3CEB3] (AR v1)
Трек 5 : извлечено точно (доверие 3) [4D5A7083] (AR v1)
Трек 6 : извлечено точно (доверие 3) [EE4C818B] (AR v1)
Трек 7 : извлечено точно (доверие 3) [D84103D7] (AR v1)
Трек 8 : извлечено точно (доверие 3) [B3A79B62] (AR v1)

Все треки извлечены точно

Конец отчёта

[CUETools log; Date: 20.08.2016 15:17:47; Version: 2.1.4]
[CTDB TOCID: LSDTwIk96s4gLr.rgREe4PSb4I8-] found.
Track | CTDB Status
1 | (2/2) Accurately ripped
2 | (2/2) Accurately ripped
3 | (2/2) Accurately ripped
4 | (2/2) Accurately ripped
5 | (2/2) Accurately ripped
6 | (2/2) Accurately ripped
7 | (2/2) Accurately ripped
8 | (2/2) Accurately ripped
[AccurateRip ID: 001513e3-00891670-670ff908] found.
Track [ CRC | V2 ] Status
01 [5e4c966e|f840dcc2] (3+0/3) Accurately ripped
02 [bdf84e6d|dbd05990] (3+0/3) Accurately ripped
03 [42e8f52d|1f247960] (3+0/3) Accurately ripped
04 [2ae3ceb3|c5fd62c0] (3+0/3) Accurately ripped
05 [4d5a7083|70582a39] (3+0/3) Accurately ripped
06 [ee4c818b|dba78867] (3+0/3) Accurately ripped
07 [d84103d7|4f3e8e1f] (3+0/3) Accurately ripped
08 [b3a79b62|65d92c2b] (3+0/3) Accurately ripped

Track Peak [ CRC32 ] [W/O NULL] [ LOG ]
– 100,0 [11590B20] [A8D97E4E] CRC32
01 100,0 [AF22C579] [07F093D9]
02 100,0 [223EBF98] [71D3E337]
03 100,0 [2E171B19] [D5E258A9]
04 100,0 [6FE4A68D] [931352C3]
05 100,0 [18785633] [533350BC]
06 100,0 [CE10DF5A] [DE473741]
07 100,0 [C91B8E37] [5B602B14]
08 100,0 [60040BE2] [25DA87C5]

Mother Black Cap - Discography [3 Studio Albums] (2006-2013)

Mother Black Cap - The English Way (2009)
EAC Rip | FLAC (image+.cue+log) - 276 MB | MP3 CBR 320 kbps (LAME 3.93) - 115 MB | Covers - 20 MB
Genre: Progressive Rock | RAR 3% Rec. | Label: Cyclops (CYCL 172)

Tracklist:
01. Breydon Sunrise
02. Rosebud
03. Child of our time
04. Saying "Mattress" to Mr Lambert
05. Don't Change Me
06. Frustrated Romantics
07. The English Way

Total time: 49:11

Exact Audio Copy V0.99 prebeta 5 from 4. May 2009

Отчёт EAC об извлечении, выполненном 23. августа 2009, 11:14

Mother Black Cap / The English way

Дисковод: _NEC DVD_RW ND-4571A Adapter: 1 ID: 0

Режим чтения : Достоверность
Использование точного потока : Да
Отключение кэша аудио : Да
Использование указателей C2 : Нет

Коррекция смещения при чтении : 48
Способность читать области Lead-in и Lead-out : Нет
Заполнение пропущенных сэмплов тишиной : Да
Удаление блоков с тишиной в начале и конце : Нет
При вычислениях CRC использовались нулевые сэмплы : Да
Интерфейс : Встроенный Win32-интерфейс для Win NT/2000

Выходной формат : Пользовательский кодировщик
Выбранный битрейт : 768 kBit/s
Качество : Высокий
Добавление ID3-тэга : Да
Утилита сжатия : C:\Program Files\Exact Audio Copy\FLAC\FLAC.EXE
Дополнительные параметры : -6 -V -T "ARTIST=%a" -T "TITLE=%t" -T "ALBUM=%g" -T "DATE=%y" -T "TRACKNUMBER=%n" -T "GENRE=%m" -T "COMMENT=%e" %s -o %d


TOC извлечённого CD

Трек | Старт | Длительность | Начальный сектор | Конечный сектор
––––––––––––––––––––––––––––––––––-
1 | 0:01.00 | 9:16.21 | 75 | 41795
2 | 9:17.21 | 7:03.35 | 41796 | 73555
3 | 16:20.56 | 3:07.52 | 73556 | 87632
4 | 19:28.33 | 6:35.03 | 87633 | 117260
5 | 26:03.36 | 4:16.10 | 117261 | 136470
6 | 30:19.46 | 0:53.32 | 136471 | 140477
7 | 31:13.03 | 17:58.16 | 140478 | 221343


Характеристики диапазона извлечения и сообщения об ошибках

Выбранный диапазон

Имя файла E:\Lossless\Mother Black Cap - The English way.wav

Пиковый уровень 99.7 %
Качество диапазона 100.0 %
CRC копии 01B03F71
Копирование… OK

Ошибок не произошло


AccurateRip: сводка

Трек 1 нет в базе данных
Трек 2 нет в базе данных
Трек 3 нет в базе данных
Трек 4 нет в базе данных
Трек 5 нет в базе данных
Трек 6 нет в базе данных
Трек 7 нет в базе данных

Ни одного трека нет в базе AccurateRip

Конец отчёта

[CUETools log; Date: 20.08.2016 15:01:51; Version: 2.1.4]
Pregap length 00:01:00.
[CTDB TOCID: 8sNaAf7cXGKLmfN9mAqCHqJaVuE-] found.
Track | CTDB Status
1 | (1/1) Accurately ripped
2 | (1/1) Accurately ripped
3 | (1/1) Accurately ripped
4 | (1/1) Accurately ripped
5 | (1/1) Accurately ripped
6 | (1/1) Accurately ripped
7 | (1/1) Accurately ripped
[AccurateRip ID: 000c7db6-00497510-640b8607] found.
Track [ CRC | V2 ] Status
01 [4ec1a052|eabe8c82] (5+0/5) Accurately ripped
02 [0f663f6b|63adc2f9] (5+0/5) Accurately ripped
03 [e8a9e1bc|20e7bb21] (5+0/5) Accurately ripped
04 [be68bb04|d5e30a03] (5+0/5) Accurately ripped
05 [ea301bf4|5de401ec] (5+0/5) Accurately ripped
06 [ddb322af|a872d42b] (5+0/5) Accurately ripped
07 [636f4a8b|82987f6c] (5+0/5) Accurately ripped

Track Peak [ CRC32 ] [W/O NULL] [ LOG ]
– 99,7 [01B03F71] [AAF25298] CRC32
01 94,5 [963EC9D6] [08781432]
02 93,4 [D05FB366] [E5882D75]
03 93,8 [F6223629] [650CDE40]
04 99,7 [177199BF] [BD41AE9E]
05 94,9 [2EB5AD0D] [1A572C35]
06 39,9 [1D739595] [130AA602]
07 95,3 [2295BD74] [4E0DFB4E]

Mother Black Cap - Discography [3 Studio Albums] (2006-2013)

Mother Black Cap - Energy (2013)
EAC Rip | FLAC (image+.cue+log) - 333 MB | MP3 CBR 320 kbps (LAME 3.93) - 115 MB | Covers - 20 MB
Genre: Progressive Rock | RAR 3% Rec. | Label: Cyclops (CYCL 178)

Tracklist:
01. Modern World
02. Life Was Good
03. Moving On
04. Don't Let Them Grind You Down
05. Fifty Five
06. Queen And Country
07. Daydreams Of The Big Stage
08. Amsterdam
09. Silent Fifty Million
10. Living Laid Back

Total time: 49:02

Exact Audio Copy V1.0 beta 3 from 29. August 2011

Отчёт EAC об извлечении, выполненном 2. ноября 2013, 12:04

Mother Black Cap / Energy

Дисковод: ASUS BW-12D1S-U Adapter: 1 ID: 1

Режим чтения : Достоверность
Использование точного потока : Да
Отключение кэша аудио : Да
Использование указателей C2 : Нет

Коррекция смещения при чтении : 667
Способность читать области Lead-in и Lead-out : Нет
Заполнение пропущенных сэмплов тишиной : Да
Удаление блоков с тишиной в начале и конце : Нет
При вычислениях CRC использовались нулевые сэмплы : Да
Интерфейс : Встроенный Win32-интерфейс для Win NT/2000

Выходной формат : Пользовательский кодировщик
Выбранный битрейт : 1024 kBit/s
Качество : Высокий
Добавление ID3-тега : Нет
Утилита сжатия : C:\Program Files (x86)\Exact Audio Copy\Flac\flac.exe
Дополнительные параметры : -V -8 -T "Date=%year%" -T "Genre=%genre%" %source%


TOC извлечённого CD

Трек | Старт | Длительность | Начальный сектор | Конечный сектор
––––––––––––––––––––––––––––––––––-
1 | 0:00.00 | 6:36.20 | 0 | 29719
2 | 6:36.20 | 4:26.18 | 29720 | 49687
3 | 11:02.38 | 3:40.68 | 49688 | 66255
4 | 14:43.31 | 8:22.18 | 66256 | 103923
5 | 23:05.49 | 3:55.30 | 103924 | 121578
6 | 27:01.04 | 4:57.68 | 121579 | 143921
7 | 31:58.72 | 4:59.23 | 143922 | 166369
8 | 36:58.20 | 3:04.03 | 166370 | 180172
9 | 40:02.23 | 3:33.57 | 180173 | 196204
10 | 43:36.05 | 5:26.21 | 196205 | 220675


Характеристики диапазона извлечения и сообщения об ошибках

Выбранный диапазон

Имя файла E:\cd\Mother Black Cap (2013) - Energy\Mother Black Cap - Energy.wav

Пиковый уровень 93.8 %
Скорость извлечения 1.7 X
Качество диапазона 100.0 %
CRC теста 1EFDDFDF
CRC копии 1EFDDFDF
Копирование… OK

Ошибок не произошло


AccurateRip: сводка

Трек 1 отсутствует в базе данных
Трек 2 отсутствует в базе данных
Трек 3 отсутствует в базе данных
Трек 4 отсутствует в базе данных
Трек 5 отсутствует в базе данных
Трек 6 отсутствует в базе данных
Трек 7 отсутствует в базе данных
Трек 8 отсутствует в базе данных
Трек 9 отсутствует в базе данных
Трек 10 отсутствует в базе данных

Ни одного трека нет в базе AccurateRip

Конец отчёта

[CUETools log; Date: 20.08.2016 15:00:49; Version: 2.1.4]
[CTDB TOCID: 9CoosA7VgQJSXzill3EZaBIZAJY-] found.
Track | CTDB Status
1 | (1/1) Accurately ripped
2 | (1/1) Accurately ripped
3 | (1/1) Accurately ripped
4 | (1/1) Accurately ripped
5 | (1/1) Accurately ripped
6 | (1/1) Accurately ripped
7 | (1/1) Accurately ripped
8 | (1/1) Accurately ripped
9 | (1/1) Accurately ripped
10 | (1/1) Accurately ripped
[AccurateRip ID: 00138231-0099b010-870b7e0a] found.
Track [ CRC | V2 ] Status
01 [4409045b|cbac6c4d] (0+4/4) Accurately ripped
02 [81507dfe|1f20cb4c] (0+4/4) Accurately ripped
03 [31eaaa83|4029f59b] (0+4/4) Accurately ripped
04 [8dbcd909|215abf24] (0+4/4) Accurately ripped
05 [e41fb64b|aed56ac5] (0+4/4) Accurately ripped
06 [39b18f51|aee9ef5d] (0+4/4) Accurately ripped
07 [efa6561f|09e325d5] (0+4/4) Accurately ripped
08 [0ac0595b|80368dbf] (0+4/4) Accurately ripped
09 [8dab4494|896905d4] (0+4/4) Accurately ripped
10 [1ab333c0|0555f94c] (0+4/4) Accurately ripped

Track Peak [ CRC32 ] [W/O NULL] [ LOG ]
– 93,8 [1EFDDFDF] [10F605B1] CRC32
01 93,8 [6C3A71CE] [939498DE]
02 93,8 [744169C6] [E916EA29]
03 93,8 [CCE8CF07] [4AE13F3E]
04 93,8 [10E311CF] [84CF0907]
05 93,8 [057C351A] [DA2EE626]
06 93,8 [FD875902] [FAD2BBB8]
07 93,8 [D8BDB239] [AE0778B1]
08 93,8 [E4474FFC] [2C82D248]
09 93,8 [46A63FB7] [A078991B]
10 93,8 [FD5B311F] [8768D1B2]

Thanks to parsrecar, neznayka80, Pasheka-Pacheka

Mother Black Cap - In The Comfort Of Your Own Home (2006)

LOSSLESS:
Nitroflare.com
_______________

MP3 320 kbps:
Nitroflare.com
_______________

Covers:
Nitroflare.com
______________________________________

Mother Black Cap - The English Way (2009)

LOSSLESS:
Nitroflare.com
_______________

MP3 320 kbps:
Nitroflare.com
_______________

Covers:
Nitroflare.com
______________________________________

Mother Black Cap - Energy (2013)

LOSSLESS:
Nitroflare.com
_______________

MP3 320 kbps:
Nitroflare.com
_______________

Covers:
Nitroflare.com

Mother Black Cap - In The Comfort Of Your Own Home (2006)

LOSSLESS:
Depositfiles.com
_______________

MP3 320 kbps:
Depositfiles.com
_______________

Covers:
Depositfiles.com
______________________________________

Mother Black Cap - The English Way (2009)

LOSSLESS:
Depositfiles.com
_______________

MP3 320 kbps:
Depositfiles.com
_______________

Covers:
Depositfiles.com
______________________________________

Mother Black Cap - Energy (2013)

LOSSLESS:
Depositfiles.com
_______________

MP3 320 kbps:
Depositfiles.com
_______________

Covers:
Depositfiles.com