Mother's Army - Planet Earth (1997)

Posted By: uff
Mother's Army - Planet Earth (1997)

Mother's Army - Planet Earth (1997)
Rock | 1cd | EAC Rip | Flac + Cue + Log | covers
Bandai, APCY-8390 | rel: 1997 | 390Mb

Planet Earth is the second release from Mother's Army. It was released in 1997. The band consisted of rock veterans Joe Lynn Turner, Bob Daisley, Jeff Watson, and Carmine Appice.

Track listing
01. Circle Of Hands (4:47)
02. Cradle To The Grave (5:45)
03. Misery Me (5:31)
04. Planet Earth (4:51)
05. For The Morment (6:09)
06. Seas Of Eternity (5:18)
07. The Child Within (4:57)
08. One Common Law (4:20)
09. Mother Earth (3:09)

Personnel
- Joe Lynn Turner - lead vocals
- Bob Daisley - bass
- Jeff Watson - lead guitar, keyboards, background vocals
- Carmine Appice - drums, percussion
- Daniela Bischel - esraj


Exact Audio Copy V1.0 beta 3 from 29. August 2011

EAC extraction logfile from 20. November 2013, 22:34

Mother's Army / Planet Earth

Used drive : SlimtypeDVD A DS8A5SH Adapter: 0 ID: 1

Read mode : Secure
Utilize accurate stream : Yes
Defeat audio cache : Yes
Make use of C2 pointers : No

Read offset correction : 6
Overread into Lead-In and Lead-Out : No
Fill up missing offset samples with silence : Yes
Delete leading and trailing silent blocks : No
Null samples used in CRC calculations : Yes
Used interface : Native Win32 interface for Win NT & 2000

Used output format : User Defined Encoder
Selected bitrate : 320 kBit/s
Quality : High
Add ID3 tag : No
Command line compressor : C:\Program Files (x86)\Exact Audio Copy\Flac\flac.exe
Additional command line options : -V -8 -T "Date=%year%" -T "Genre=%genre%" %source%


TOC of the extracted CD

Track | Start | Length | Start sector | End sector
––––––––––––––––––––––––––––-
1 | 0:00.00 | 4:47.70 | 0 | 21594
2 | 4:47.70 | 5:45.65 | 21595 | 47534
3 | 10:33.60 | 5:31.42 | 47535 | 72401
4 | 16:05.27 | 4:51.00 | 72402 | 94226
5 | 20:56.27 | 6:09.45 | 94227 | 121946
6 | 27:05.72 | 5:18.10 | 121947 | 145806
7 | 32:24.07 | 4:57.23 | 145807 | 168104
8 | 37:21.30 | 4:20.32 | 168105 | 187636
9 | 41:41.62 | 3:09.60 | 187637 | 201871


Range status and errors

Selected range

Filename D:\My Music\Mother's Army - 1997 Planet Earth\Mother's Army - Planet Earth.wav

Peak level 97.6 %
Extraction speed 1.7 X
Range quality 100.0 %
Test CRC B4DDB2AF
Copy CRC B4DDB2AF
Copy OK

No errors occurred


AccurateRip summary

Track 1 accurately ripped (confidence 2) [D626B78A] (AR v1)
Track 2 accurately ripped (confidence 2) [FC67C86E] (AR v1)
Track 3 accurately ripped (confidence 2) [F803ABE7] (AR v1)
Track 4 accurately ripped (confidence 2) [D5FC9E2D] (AR v1)
Track 5 accurately ripped (confidence 2) [22B87CEC] (AR v1)
Track 6 accurately ripped (confidence 2) [79551CA1] (AR v1)
Track 7 accurately ripped (confidence 2) [508DA766] (AR v1)
Track 8 accurately ripped (confidence 2) [76BFBD4D] (AR v1)
Track 9 accurately ripped (confidence 2) [D091C0E5] (AR v1)

All tracks accurately ripped

End of status report

==== Log checksum 74C0330C2F8CCB87B8AA52C4AD660D202F6DF161879D11752E4B2CE9F9011353 ====




[CUETools log; Date: 2017. 02. 02. 18:18:36; Version: 2.1.6]
[CTDB TOCID: aZA_nF3J72SGtedcFjy1U8CJrlU-] found.
Track | CTDB Status
1 | (3/3) Accurately ripped
2 | (3/3) Accurately ripped
3 | (3/3) Accurately ripped
4 | (3/3) Accurately ripped
5 | (3/3) Accurately ripped
6 | (3/3) Accurately ripped
7 | (3/3) Accurately ripped
8 | (3/3) Accurately ripped
9 | (3/3) Accurately ripped
[AccurateRip ID: 00103107-007645fb-820a8309] found.
Track [ CRC | V2 ] Status
01 [d626b78a|bc114c8b] (2+2/4) Accurately ripped
02 [fc67c86e|79faf06d] (2+2/4) Accurately ripped
03 [f803abe7|3c2e7d1e] (2+2/4) Accurately ripped
04 [d5fc9e2d|e2781586] (2+2/4) Accurately ripped
05 [22b87cec|316e52aa] (2+2/4) Accurately ripped
06 [79551ca1|f41ede87] (2+2/4) Accurately ripped
07 [508da766|d2bbd9fb] (2+2/4) Accurately ripped
08 [76bfbd4d|c222227b] (2+2/4) Accurately ripped
09 [d091c0e5|6d6192d1] (2+2/4) Accurately ripped

Track Peak [ CRC32 ] [W/O NULL] [ LOG ]
– 97,6 [B4DDB2AF] [6ADB3180] CRC32
01 97,1 [7E3FB8E8] [09E3927E]
02 97,0 [5CF7502B] [1AAAFF5A]
03 97,1 [28BAF8D3] [46EE276F]
04 96,6 [B355261D] [94464185]
05 96,4 [AC80A6F3] [BE53918D]
06 97,6 [99F05C67] [B740DC1B]
07 97,4 [C496D25B] [B6562F01]
08 96,8 [FC5A84F0] [779C30EC]
09 96,9 [0BE6D5C5] [A8E97343]


Thx to kolushew