Subcategories

Motorpsycho - Angels and Daemons at Play (2016) [6xCD Box Set]

Posted By: v3122
Motorpsycho - Angels and Daemons at Play (2016) [6xCD Box Set]

Motorpsycho - Angels and Daemons at Play (2016)
EAC | Flac(Image) + Cue + Log & MP3 CBR 320Kbps
Rune Grammofon, RACD114 | ~ 1993 or 797 Mb | Scans(png) ->1892 Mb
Progressive Rock / Experimental

The fourth of Motorpsycho’s expanded archival sets revisits 1997’s Angels and Daemons at Play – a chronological and developmental follow-on from the earlier Blissard set.

The box contains 6 CDs but it’s actually quite a tidy package, with very little replication of material. There’s just one disc of EP cuts and rarities, plus a complete concert recording that spans two further CDs, and the original album, presented, as the first 500 copies were, as three separate CD EPs, although all the music would fit onto a single disc.

There are no experimental studio tapes or discarded albums to exhume this time around, as Motorpsycho circa 1997 was compacting and locking into a hectic schedule of touring and recording.

The EPs make sense, with the first, Babyscooter, being a vigorous collection of melodic indie rock tracks. The third, Lovelight, is more of a mixed bag, but likewise features Motorpsycho pared back from the quintet that recorded Blissard to the core trio of Bent Sæther, Hans Magnus ‘Snah’ Ryan, and Håkon ‘Geb’ Gebhardt. The middle EP, Have Spacesuit Will Travel, is something else: a suite of more progressive music with guests Deathprod on electronics and Ole Henrik Moe (ohm) on saws, strings and piano, further enhancing the trio’s multi-instrumentalism.

The Motorpsycho sound of this era reveals both The Beatles and Blue Cheer as bedrock underlying other classic rock, grunge and (not so much) prog influences, but since the trio, Sæther in particular are no slouches in the songwriting department they’re closer to the former, and the overall impact of Angels and Daemons is more punchy and concentrated than the curate’s egg eclecticism of Blissard, though there’s still plenty to dig into.

Of particular interest are the three versions of “Un Chien d´Espace”, a structured improvisation to accompany Luis Bunuel’s surreal short film Un Chién Andalou. These include its first performance, recorded at Cinemateket, Oslo, in 1996 (on the ‘rarities’ CD, along with an improv extract from a later performance), a subsequent performance on the 1997 live set, and the studio version on the Have Spacesuit Will Travel EP.

One of my few gripes is that this EP isn’t indexed, so “Un Chien d’Espace”, the title piece (which was dropped from the single CD version of the album), and the short “Ohm’s Concerto for Alto and Soprano Saw” are run together as a continuous half-hour ‘suite’ despite not being one – the longer cuts are quite separate, with “Have Spacesuit Will Travel” pointing the way to the expansive progressive rock of more recent years.

The rarities include a couple of album outtakes, also with Deathprod and ohm, which are less experimental than the “Have Spacesuit” cuts, but more so than the material on the other EPs, on which the most outré thing is the untitled banjo-based ‘joke’ track that ends the album proper, and which I could happily live without.

In a similar vein but more welcome, there’s a trad romp through “Syk”, a song originally recorded – with a more contemporary electronic sound, ironically – by cult Norwegian children’s entertainers Knutsen and Ludvigsen. For the most part though, the bonus material only goes to point up what well-honed artists Motorpsycho were becoming: they even manage to nail an acceptable studio version of “Flick of the Wrist” from post-Blissard reject album When The World Sleeps.

The live CDs contain an entire two and a half hour 1997 concert, including Deathprod’s opening half hour noise/ambient piece “Komet”, on which he’s accompanied by Moe and a couple of percussionists, all of whom assist Motorpsycho’s power-rummage through what was already, in ’97, a rich back catalogue.

Standout tracks include a hefty rendition of “Hogwash” from debut LP Lobotomizer and a suitably rough-and-ready take on The Who’s version of Mose Allison’s “Young Man Blues”. Though the latter isn’t as convincing as the Live at Leeds classic (they fare better, on the Starmelt EP, with a powerful retrofit of Humble Pie’s “Up Our Sleeves”), the audience singalong to “The One That Went Away” is testament to an exhilarating, crowd pleasing set. All very nicely recorded by NRK, the Norwegian broadcasting corporation, and newly mastered by Deathprod.

As usual the box itself is neat and sturdy, with a re-design by Kim Hiorthøy, a booklet with all the info you need, and three photos of Bent, Snah and Geb looking almost dapper, which is only appropriate – these Motorpsycho reissues are exemplary.

by Tim Owen

Motorpsycho - Angels and Daemons at Play (2016):

Motorpsycho - Angels and Daemons at Play (2016) [6xCD Box Set]

Tracklist CD1 - Baby Scooter:

Sideway Spiral I (Ryan, Saether)
HMR: lead vocals, 12-string acoustic guitar, backing vocals, piano, organ
BS: acoustic guitar, backing vocals, drum-solo: “knobby dick"
Ohm: alto saw, soprano saw

Walking on the Water (Saether)
BS: lead vocals, bass, 12-string acoustic guitar, piano, percussion, backing vocals
Gebhardt: drums, percussion
HMR: electric guitars, percussion, backing vocals
Ohm: violins

Heartattack Mac (Gebhardt, Ryan, Saether)
HMR: guitar right channel, Moog Taurus, piano, vocals
BS: guitar left channel, prepared piano
Gebhardt: drums, percussion

Pills, Powders and Passion Plays (Miss Mitchell in the Ladies Room) (Saether)
BS: bass, guitars, vocals
Gebhardt: drums
HMR: piano

In the Family (Saether)
BS: bass, vocals, Mellotron
Gebhardt: drums
HMR: electric & acoustic guitars, piano

Exact Audio Copy V1.2 from 12. August 2016

EAC extraction logfile from 9. July 2017, 3:31

Motorpsycho / Angels & Daemons At Play (CD1)

Used drive : PIONEER DVD-RW DVR-220RS Adapter: 1 ID: 1

Read mode : Secure
Utilize accurate stream : Yes
Defeat audio cache : Yes
Make use of C2 pointers : No

Read offset correction : 6
Overread into Lead-In and Lead-Out : No
Fill up missing offset samples with silence : Yes
Delete leading and trailing silent blocks : No
Null samples used in CRC calculations : Yes
Used interface : Native Win32 interface for Win NT & 2000

Used output format : User Defined Encoder
Selected bitrate : 768 kBit/s
Quality : High
Add ID3 tag : No
Command line compressor : C:\Program Files (x86)\Exact Audio Copy\Wavpack\wavpack.exe
Additional command line options : -hm %source% %dest%


TOC of the extracted CD

Track | Start | Length | Start sector | End sector
––––––––––––––––––––––––––––-
1 | 0:00.00 | 2:33.67 | 0 | 11541
2 | 2:33.67 | 4:19.53 | 11542 | 31019
3 | 6:53.45 | 7:41.42 | 31020 | 65636
4 | 14:35.12 | 3:24.20 | 65637 | 80956
5 | 17:59.32 | 4:51.20 | 80957 | 102801


Range status and errors

Selected range

Filename C:\_NL+_\_CD\Motorpsycho - Angels & Daemons At Play (CD1).wav

Peak level 100.0 %
Extraction speed 1.5 X
Range quality 100.0 %
Test CRC 51E44A6F
Copy CRC 51E44A6F
Copy OK

No errors occurred


AccurateRip summary

Track 1 cannot be verified as accurate (confidence 12) [E5287814], AccurateRip returned [C8023E05] (AR v2)
Track 2 cannot be verified as accurate (confidence 12) [6438A03C], AccurateRip returned [3B8B3224] (AR v2)
Track 3 cannot be verified as accurate (confidence 12) [AABF4BB7], AccurateRip returned [B156BD67] (AR v2)
Track 4 cannot be verified as accurate (confidence 12) [B07EDE09], AccurateRip returned [27811A95] (AR v2)
Track 5 cannot be verified as accurate (confidence 12) [3BE80167], AccurateRip returned [17A71B4D] (AR v2)

No tracks could be verified as accurate
You may have a different pressing from the one(s) in the database

End of status report

–– CUETools DB Plugin V2.1.6

[CTDB TOCID: NjB5l7_lY8kBJF2YpMxQfayvxH0-] found
Submit result: NjB5l7_lY8kBJF2YpMxQfayvxH0- has been confirmed
Track | CTDB Status
1 | (23/23) Accurately ripped
2 | (23/23) Accurately ripped
3 | (23/23) Accurately ripped
4 | (23/23) Accurately ripped
5 | (23/23) Accurately ripped


==== Log checksum 355E6D39BB4A5BCC0DFAE780EAE48F8708E38547B86ED1542026985A14C00C10 ====


Motorpsycho - Angels and Daemons at Play (2016) [6xCD Box Set]

Tracklist CD2 - Have Spacesuit, Will Travel:

Un Chien d’Espace (Gebhardt, Ryan, Saether)
BS: vocals, guitar left channel, piano
HMR: guitar right channel, Moog Taurus, vibraphone
Gebhardt: drums
Deathprod: oscillators

Have Spacesuit, Will Travel (Gebhardt, Ryan, Saether)
BS: vocals, wah-wah guitar, bass
HMR: vocals, fuzz guitar, double bass, Fender Rhodes
Gebhardt: drums
Deathprod: oscillators, reverberators, ring-modulators
Ohm: alto saw, soprano saw

Ohm’s Concerto for Alto and Soprano Saw (Moe)
Ohm: alto saw, soprano saw

Exact Audio Copy V1.2 from 12. August 2016

EAC extraction logfile from 9. July 2017, 7:18

Motorpsycho / Angels and Daemons at Play (CD2)

Used drive : PIONEER DVD-RW DVR-220RS Adapter: 1 ID: 1

Read mode : Secure
Utilize accurate stream : Yes
Defeat audio cache : Yes
Make use of C2 pointers : No

Read offset correction : 6
Overread into Lead-In and Lead-Out : No
Fill up missing offset samples with silence : Yes
Delete leading and trailing silent blocks : No
Null samples used in CRC calculations : Yes
Used interface : Native Win32 interface for Win NT & 2000

Used output format : User Defined Encoder
Selected bitrate : 768 kBit/s
Quality : High
Add ID3 tag : No
Command line compressor : C:\Program Files (x86)\Exact Audio Copy\Wavpack\wavpack.exe
Additional command line options : -hm %source% %dest%


TOC of the extracted CD

Track | Start | Length | Start sector | End sector
––––––––––––––––––––––––––––-
1 | 0:00.00 | 29:58.62 | 0 | 134911


Range status and errors

Selected range

Filename C:\_NL+_\_CD\Motorpsycho - Angels and Daemons at Play (CD2).wav

Peak level 99.8 %
Extraction speed 1.6 X
Range quality 100.0 %
Test CRC 5CBB1101
Copy CRC 5CBB1101
Copy OK

No errors occurred


AccurateRip summary

Track 1 cannot be verified as accurate (confidence 8) [26C04B11], AccurateRip returned [764655F4] (AR v2)

No tracks could be verified as accurate
You may have a different pressing from the one(s) in the database

End of status report

–– CUETools DB Plugin V2.1.6

[CTDB TOCID: N5kHzJ8p53FJ2M1WxLLqrpqnccw-] found
Submit result: already submitted
Track | CTDB Status
1 | (24/24) Accurately ripped


==== Log checksum 80886A60A730AB150CF2208859967D5FE5E138A573A11EF4CA0EFD5D328236F4 ====


Motorpsycho - Angels and Daemons at Play (2016) [6xCD Box Set]

Tracklist CD3 - Lovelight:

Sideway Spiral II (Gebhardt, Ryan, Saether)
BS: guitar left channel, bass, vocals
HMR: guitar right channel, backing vocals
Gebhardt: drums

Like Always (Ryan, Saether)
HMR: lead vocals, guitars
BS: bass, backing vocals, piano
Gebhardt: drums, percussion

Stalemate (Saether)
BS: vocals, guitars, Fender Rhodes, Mellotron, bass
HMR: backing vocals
Ohm: piano

Starmelt/Lovelight (Gebhardt, Ryan, Saether)
HMR: electric guitars, lead vocals, piano
Gebhardt: drums, percussion
BS: bass, acoustic guitar, piano, backing vocals

Timothy’s Monster (Gebhardt, Ryan, Saether)
BS: lead vocals, bass, wah-wah and one-note guitars, Moog Taurus
HMR: electric guitar, vocals
Gebhardt: drums

Exact Audio Copy V1.2 from 12. August 2016

EAC extraction logfile from 9. July 2017, 7:45

Motorpsycho / Angels and Daemons at Play (CD3)

Used drive : PIONEER DVD-RW DVR-220RS Adapter: 1 ID: 1

Read mode : Secure
Utilize accurate stream : Yes
Defeat audio cache : Yes
Make use of C2 pointers : No

Read offset correction : 6
Overread into Lead-In and Lead-Out : No
Fill up missing offset samples with silence : Yes
Delete leading and trailing silent blocks : No
Null samples used in CRC calculations : Yes
Used interface : Native Win32 interface for Win NT & 2000

Used output format : User Defined Encoder
Selected bitrate : 768 kBit/s
Quality : High
Add ID3 tag : No
Command line compressor : C:\Program Files (x86)\Exact Audio Copy\Wavpack\wavpack.exe
Additional command line options : -hm %source% %dest%


TOC of the extracted CD

Track | Start | Length | Start sector | End sector
––––––––––––––––––––––––––––-
1 | 0:00.00 | 3:22.32 | 0 | 15181
2 | 3:22.32 | 3:39.60 | 15182 | 31666
3 | 7:02.17 | 4:55.68 | 31667 | 53859
4 | 11:58.10 | 3:30.45 | 53860 | 69654
5 | 15:28.55 | 4:14.57 | 69655 | 88761
6 | 19:43.37 | 1:35.10 | 88762 | 95896


Range status and errors

Selected range

Filename C:\_NL+_\_CD\Motorpsycho - Angels and Daemons at Play (CD3).wav

Peak level 100.0 %
Extraction speed 1.5 X
Range quality 100.0 %
Test CRC 659D5AF4
Copy CRC 659D5AF4
Copy OK

No errors occurred


AccurateRip summary

Track 1 cannot be verified as accurate (confidence 12) [7FCC0EB7], AccurateRip returned [6E881A7D] (AR v2)
Track 2 cannot be verified as accurate (confidence 12) [B4BF99CC], AccurateRip returned [93B2FE9C] (AR v2)
Track 3 cannot be verified as accurate (confidence 12) [9FEF0F17], AccurateRip returned [F7F6B4DD] (AR v2)
Track 4 cannot be verified as accurate (confidence 12) [8B490BA3], AccurateRip returned [7EB609F0] (AR v2)
Track 5 cannot be verified as accurate (confidence 12) [2938C56F], AccurateRip returned [64D2EA7D] (AR v2)
Track 6 cannot be verified as accurate (confidence 7) [BE877BEC], AccurateRip returned [BB749B0E] (AR v2)

No tracks could be verified as accurate
You may have a different pressing from the one(s) in the database

End of status report

–– CUETools DB Plugin V2.1.6

[CTDB TOCID: .8VbgNs9xJR52kuA1wbl2zLlkSg-] found
Submit result: .8VbgNs9xJR52kuA1wbl2zLlkSg- has been confirmed
Track | CTDB Status
1 | (22/22) Accurately ripped
2 | (22/22) Accurately ripped
3 | (22/22) Accurately ripped
4 | (22/22) Accurately ripped
5 | (22/22) Accurately ripped
6 | (22/22) Accurately ripped


==== Log checksum 5056F8AC66BE12693A1F84574BAA75C66FF0955BEA70AE59F2BBB2C2886951E8 ====


Motorpsycho - Angels and Daemons at Play (2016) [6xCD Box Set]

Tracklist CD4 - The Ones That Got Away: B-Sides, Rarities & Live Recordings:

STARMELT EP Starmelt/Lovelight [edit] (Gebhardt, Ryan, Saether)
HMR: electric guitars, lead vocals, piano
Gebhardt: drums, percussion
BS: bass, acoustic guitar, piano, backing vocals
A slightly extended version of the album track, featuring a really nice geb-ism. Always a good singles policy! Athletic Sound, Oct. 1996.

Up Our Sleeves (Marriott/The Pie)
BS: lead vocals, bass, rhythm guitar, percussion
HMR: backing vocals, lead guitar
Gebhardt: drums
Cover of old Humble Pie chestnut. Marriott was the man! Basic track recorded live at Studenter samfunnet in Halden. Overdubbed & mixed at Athletic Sound, March/April 1997.

Wishing Well (Saether, 0ien)
Gebhardt: banjo
Frode: words
BS: everything else
Written with lyrical help from the future Samuel Bjork, Frode 0ien. Four-track/Athletic Sound April 1997.

Flick of the Wrist (Saether)
BS: lead vocals, guitar left channel, bass
HMR: guitar right channel, backing vocals
Gebhardt: drums
Re-recording and definitive version of live favourite and cast-off from the When the World Sleeps sessions. Athletic Sound Oct. 1996.

Instamatic (Gebhardt)
Geb & Geb alone on a four-track. April 1997.

OUTTAKES
Back to Source (Gebhardt, Ryan, Saether)
BS: guitar left channel, bass, vocals
HMR: guitar right channel, backing vocals
Gebhardt: drums
Deathprod: oscillators & theremin
This song was included on the vinyl version of Angels and Daemons at Play, but left off all the digital versions. Later included on the Ozone EP. Athletic Sound, Oct 1996.

Caterpillar (Ryan, Saether, 0ien)
HMR: mandolin, 6 string acoustic & electric guitars, lead & backing vocals, piano
BS: bass, 12-string acoustic guitar, backing vocals
Gebhardt: drums, percussion
Deathprod: theremin
Frode: words
Outtake from the AADAP sessions. "Didn't we write this one already?” seemed to be the main reason why we left it off. We hadn’t, but there you go. Athletic Sound, Oct 1996. Previously unreleased.

King Bong Hop (Saether)
BS: lead vocals, acoustic & electric guitar, bass, piano
Gebhardt: drums
HMR: electric guitars, backing vocals
Outtake from the AADAP sessions, incl. sly Cheap Trick reference. At the time it felt too lightweight and also a bit like it belonged to the "Blissard"-era, and more-of-the-same just isn’t good enough, right? It was later rewritten & rearranged, and became The Ocean in Her Eye on Trust Us. Much better! Athletic Sound, Oct 1996. Previously unreleased.

MOT RIVING
These three songs were released on a split CD with Tre SmS Kinesere to benefit the local housing co-op in their fight against The Man. It was our small contribution in the effort to keep ’our’ part of Trondheim, Svartlamoen, from being sold and turned into a car dealership. The struggle was real, and this was an important backdrop to everything Motorpsycho did at this time. The battle was eventually won and Svartlamoen is still there today. Yay!

Star Dancer vs Car Cancer (Burt, Ryan, Saether, Gebhardt)
Brygga studio, Trondheim, 1997.
Gebhardt: drums, banjo, synthesizer
BS: bass, backing vocals
HMR: guitar, backing vocals
Frode 0ien: lead & backing vocals
Matt: words
Jon Marius: loop

La’moen Rag (Gebhardt)
Geb & Geb alone on a four-track, 1997.

Baby Jesus II [demo] (Saether, 0ien)
BS: acoustic guitar, percussion, vocals
Gebhardt: banjo
Frode: words
Demo version of a song previously demoed as All You’re Waiting For during the When the World Sleeps era. Later done properly in Norwegian by Sanderfinger on their Camping album. Four-track, 1997.

VARIOUS
Mad Sun (Saether)
BS: acoustic guitar, lead vocals
HMR: acoustic guitar, background vocals
Recorded live in the Fridge record store in Milan, February 1996. V/A: Soniche Avventure III [Fridge, FRDG007.1997]

Nature’s Way (California)
HMR: acoustic guitar, lead vocals
BS: backing vocals
Ohm: singing saw
Deathprod: samples
Recorded and mixed by Helge Sten, AV-LAB, 1996. Inspired by Willy B, we covered Spirit’s classic ecological hymn included on the V/A: Gamle Moder Jord [GPCD1, 1996] compilation album saluting Greenpeace on their 25th anniversary.

Syk (Dolmen, Lorentzen)
HMR: guitars, violin, Viscount organ, backing vocals
BS: bass, backing vocals, percussion
Gebhardt: drums, banjo, percussion
Winnifried Ryan: lead vocals
One of our biggest favourite albums ever is Knutsen and Ludvigsen’s , and this song is one of our favourite songs from that album. Getting Snah’s mom to sing it was an awesome extra bonus! Recorded for a Progress Records/ NRK-P3 project and released on V/A: Ellediller og Krokofanter - En Hyllest til Knutsen og Ludvigsen [Progress, PRO 0259, 1996]. Licensed from Progress records.

Un Chien d’Espace (Gebhardt, Ryan, Saether)
HMR: guitar, Moog Taurus
BS: guitar
Gebhardt: drums, Arp Axxe
Deathprod: audio virus
Ohm: singing saw
This is the very first performance of Un Chien d'Espace ever. We were asked to improvise to Bunuel’s "Un Chiеn Andalou" at Cinemateket in Oslo in the fall of 1996 and instead of just feeling it out, came up with this loosely structured music where only the beginning and the end were written and everything else was up for grabs. There were two performances that night, both with Deathprod and Ohm on board, and this is the first.Please be adviced that this is a reference recording only and that the balance sometimes leaves a lot to the imagination, but we feel that its value as a document outweighs its sonic inadequacies and that its historical significance justifies its inclusion here. We dig the Oslo-hipster comment at the end! Recorded by Audun Strype, Cinemateket, Oslo, October 1996. Previously unreleased.

Timothy in the Magic City (Gebhardt, Ryan, Saether)
BS: guitar, samples, vocalisations
HMR: guitar, Moog Taurus
Gebhardt: drums, Arp Axxe
Pidah Kloos: live mix & effects
Excerpt from an improv during an Un Chien d' somewhere. Probably Alesund, 1997. Recorded by Pidah, 1997. V/A: We'll Sail Out Far… Maybe a Little Too Far… [Apartment Records, APAREC004, 1997]

Exact Audio Copy V1.2 from 12. August 2016

EAC extraction logfile from 9. July 2017, 8:47

Motorpsycho / Angels and Daemons at Play (CD4)

Used drive : PIONEER DVD-RW DVR-220RS Adapter: 1 ID: 1

Read mode : Secure
Utilize accurate stream : Yes
Defeat audio cache : Yes
Make use of C2 pointers : No

Read offset correction : 6
Overread into Lead-In and Lead-Out : No
Fill up missing offset samples with silence : Yes
Delete leading and trailing silent blocks : No
Null samples used in CRC calculations : Yes
Used interface : Native Win32 interface for Win NT & 2000

Used output format : User Defined Encoder
Selected bitrate : 768 kBit/s
Quality : High
Add ID3 tag : No
Command line compressor : C:\Program Files (x86)\Exact Audio Copy\Wavpack\wavpack.exe
Additional command line options : -hm %source% %dest%


TOC of the extracted CD

Track | Start | Length | Start sector | End sector
––––––––––––––––––––––––––––-
1 | 0:00.00 | 3:52.32 | 0 | 17431
2 | 3:52.32 | 3:36.49 | 17432 | 33680
3 | 7:29.06 | 5:06.71 | 33681 | 56701
4 | 12:36.02 | 8:51.59 | 56702 | 96585
5 | 21:27.61 | 3:06.48 | 96586 | 110583
6 | 24:34.34 | 6:37.71 | 110584 | 140429
7 | 31:12.30 | 4:50.70 | 140430 | 162249
8 | 36:03.25 | 2:48.16 | 162250 | 174865
9 | 38:51.41 | 3:07.50 | 174866 | 188940
10 | 41:59.16 | 2:01.13 | 188941 | 198028
11 | 44:00.29 | 2:07.46 | 198029 | 207599
12 | 46:08.00 | 3:02.29 | 207600 | 221278
13 | 49:10.29 | 2:18.07 | 221279 | 231635
14 | 51:28.36 | 2:18.34 | 231636 | 242019
15 | 53:46.70 | 17:17.06 | 242020 | 319800
16 | 71:04.01 | 3:43.73 | 319801 | 336598


Range status and errors

Selected range

Filename C:\_NL+_\_CD\Motorpsycho - Angels and Daemons at Play (CD4).wav

Peak level 100.0 %
Extraction speed 2.1 X
Range quality 99.9 %
Test CRC 9CD3624A
Copy CRC 9CD3624A
Copy OK

No errors occurred


AccurateRip summary

Track 1 accurately ripped (confidence 1) [FF0D4F94] (AR v2)
Track 2 accurately ripped (confidence 1) [68E92B2D] (AR v2)
Track 3 accurately ripped (confidence 1) [57532C0F] (AR v2)
Track 4 accurately ripped (confidence 1) [AF71C76D] (AR v2)
Track 5 accurately ripped (confidence 1) [53AD3253] (AR v2)
Track 6 accurately ripped (confidence 1) [C4A69482] (AR v2)
Track 7 accurately ripped (confidence 1) [6C4EA659] (AR v2)
Track 8 accurately ripped (confidence 1) [452F7218] (AR v2)
Track 9 accurately ripped (confidence 1) [5F5159A6] (AR v2)
Track 10 accurately ripped (confidence 1) [1AF8D2A9] (AR v2)
Track 11 accurately ripped (confidence 1) [6D0655BD] (AR v2)
Track 12 accurately ripped (confidence 1) [8F5E05A3] (AR v2)
Track 13 accurately ripped (confidence 1) [BB2D968A] (AR v2)
Track 14 accurately ripped (confidence 1) [637FA94D] (AR v2)
Track 15 accurately ripped (confidence 1) [02350D70] (AR v2)
Track 16 accurately ripped (confidence 1) [5A40195B] (AR v2)

All tracks accurately ripped

End of status report

–– CUETools DB Plugin V2.1.6

[CTDB TOCID: RRJXbDuIHRLbMfz4HrE0YpUq.u4-] found
Submit result: RRJXbDuIHRLbMfz4HrE0YpUq.u4- has been confirmed
Track | CTDB Status
1 | (17/17) Accurately ripped
2 | (17/17) Accurately ripped
3 | (17/17) Accurately ripped
4 | (17/17) Accurately ripped
5 | (17/17) Accurately ripped
6 | (17/17) Accurately ripped
7 | (17/17) Accurately ripped
8 | (17/17) Accurately ripped
9 | (17/17) Accurately ripped
10 | (17/17) Accurately ripped
11 | (17/17) Accurately ripped
12 | (17/17) Accurately ripped
13 | (17/17) Accurately ripped
14 | (17/17) Accurately ripped
15 | (17/17) Accurately ripped
16 | (17/17) Accurately ripped


==== Log checksum 22A118DA19EEB2264E62D443589A0113A827C8CD74C68CB02E67B604088894F0 ====


Motorpsycho - Angels and Daemons at Play (2016) [6xCD Box Set]

Tracklist CD5 - Rockefeller, March 14, 1997 Part I:

Deathprod: Komet (Sten, Moe)
Helge Sten: audio virus
Ole Henrik Moe: singing saw
Knut Alefjaer & Marius Sdbye: thundersheets

Motorpsycho:
S. T. G. (Saether)
Kill Some Day (Ryan, Sten, Saether)
Like Always (Ryan, Saether)
Heartattack Mac (Gebhardt, Ryan, Saether)
Pills, Powders and Passion Plays (Saether)
The Nerve Tattoo (Gebhardt, Saether)
Young Man Blues (Allison)
Starmelt/Lovelight (Gebhardt, Ryan, Saether)

Exact Audio Copy V1.2 from 12. August 2016

EAC extraction logfile from 9. July 2017, 9:39

Motorpsycho / Angels and Daemons at Play (CD5)

Used drive : PIONEER DVD-RW DVR-220RS Adapter: 1 ID: 1

Read mode : Secure
Utilize accurate stream : Yes
Defeat audio cache : Yes
Make use of C2 pointers : No

Read offset correction : 6
Overread into Lead-In and Lead-Out : No
Fill up missing offset samples with silence : Yes
Delete leading and trailing silent blocks : No
Null samples used in CRC calculations : Yes
Used interface : Native Win32 interface for Win NT & 2000

Used output format : User Defined Encoder
Selected bitrate : 768 kBit/s
Quality : High
Add ID3 tag : No
Command line compressor : C:\Program Files (x86)\Exact Audio Copy\Wavpack\wavpack.exe
Additional command line options : -hm %source% %dest%


TOC of the extracted CD

Track | Start | Length | Start sector | End sector
––––––––––––––––––––––––––––-
1 | 0:00.00 | 26:48.29 | 0 | 120628
2 | 26:48.29 | 11:40.21 | 120629 | 173149
3 | 38:28.50 | 5:52.25 | 173150 | 199574
4 | 44:21.00 | 3:46.25 | 199575 | 216549
5 | 48:07.25 | 9:38.39 | 216550 | 259938
6 | 57:45.64 | 4:23.24 | 259939 | 279687
7 | 62:09.13 | 4:59.01 | 279688 | 302113
8 | 67:08.14 | 5:42.66 | 302114 | 327829
9 | 72:51.05 | 3:35.49 | 327830 | 344003


Range status and errors

Selected range

Filename C:\_NL+_\_CD\Motorpsycho - Angels and Daemons at Play (CD5).wav

Peak level 98.7 %
Extraction speed 2.1 X
Range quality 100.0 %
Test CRC ADB15E4D
Copy CRC ADB15E4D
Copy OK

No errors occurred


AccurateRip summary

Track 1 accurately ripped (confidence 1) [44E71F6E] (AR v2)
Track 2 accurately ripped (confidence 1) [BA810204] (AR v2)
Track 3 accurately ripped (confidence 1) [74AB1E0A] (AR v2)
Track 4 accurately ripped (confidence 1) [80201C30] (AR v2)
Track 5 accurately ripped (confidence 1) [55CC74BA] (AR v2)
Track 6 accurately ripped (confidence 1) [AB464610] (AR v2)
Track 7 accurately ripped (confidence 1) [81A87F27] (AR v2)
Track 8 accurately ripped (confidence 1) [8C8FC969] (AR v2)
Track 9 accurately ripped (confidence 1) [822A3B6F] (AR v2)

All tracks accurately ripped

End of status report

–– CUETools DB Plugin V2.1.6

[CTDB TOCID: nL_8QhBV5G5HptFEKoDhy2etIDY-] found
Submit result: nL_8QhBV5G5HptFEKoDhy2etIDY- has been confirmed
Track | CTDB Status
1 | (17/17) Accurately ripped
2 | (17/17) Accurately ripped
3 | (17/17) Accurately ripped
4 | (17/17) Accurately ripped
5 | (17/17) Accurately ripped
6 | (17/17) Accurately ripped
7 | (17/17) Accurately ripped
8 | (17/17) Accurately ripped
9 | (17/17) Accurately ripped


==== Log checksum 352CAA621C5D9FF35D79BA0787E3CBAF40EBFE5078BF4149929E5070BFE67F87 ====


Motorpsycho - Angels and Daemons at Play (2016) [6xCD Box Set]

Tracklist CD6 - Rockefeller, March 14, 1997 Part II:

Un Chien d’Espace (Gebhardt, Ryan, Saether)
Sideway Spiral II (Gebhardt, Ryan, Saether)
You Lied (Saether)
Hogwash (Saether)
The One That Went Away (Saether)
Nothing to Say (Ryan, Saether)
Into The Sun (Farner)
The Golden Core (Ryan, Saether)

HMR: guitar, vocals, Moog Taurus
Gebhardt: drums, Arp Axxe
BS: bass, vocals, guitar, samples
Occasionally joined by Sten, Moe, Alefjaer & Sdbye or combinations thereof.

These NRK recordings are the mixes from the multitrack recording that were originally broadcast on NRK/P3. Deathprod opened this show, playing his work Komet with Ole Henrik Moe and two percussionists. They all stayed for the duration, and can be heard playing occasionally throughout the concert.

We decided to include the complete recording of both Deathprod and Motorpsycho’s sets, both because we think it’s a great document and also because it's a good example of what the music sounded like at the time, warts ‘n’ all. Not all of this music is flawless and perfect — far from it! — but for historical reasons it is great to be able to present the whole evening. This is the stuff legends are made of, and now psychonauts from all over the world are finally able to go back and experience a night at Rockefeller with Deathprod & Motorpsycho.

This recording was produced by Harald Are Lund for NRK/P3. It was engineered by Arne Dypvik & Terje Hellem, and mixed by Terje Hellem & Helge Sten. Thanks to Harald Are for having the foresight and Silje Tomter®nrk for helping find the source material.

Exact Audio Copy V1.2 from 12. August 2016

EAC extraction logfile from 9. July 2017, 13:54

Motorpsycho / Angels and Daemons at Play (CD6)

Used drive : PIONEER DVD-RW DVR-220RS Adapter: 1 ID: 1

Read mode : Secure
Utilize accurate stream : Yes
Defeat audio cache : Yes
Make use of C2 pointers : No

Read offset correction : 6
Overread into Lead-In and Lead-Out : No
Fill up missing offset samples with silence : Yes
Delete leading and trailing silent blocks : No
Null samples used in CRC calculations : Yes
Used interface : Native Win32 interface for Win NT & 2000

Used output format : User Defined Encoder
Selected bitrate : 768 kBit/s
Quality : High
Add ID3 tag : No
Command line compressor : C:\Program Files (x86)\Exact Audio Copy\Wavpack\wavpack.exe
Additional command line options : -hm %source% %dest%


TOC of the extracted CD

Track | Start | Length | Start sector | End sector
––––––––––––––––––––––––––––-
1 | 0:00.00 | 17:44.48 | 0 | 79847
2 | 17:44.48 | 3:30.39 | 79848 | 95636
3 | 21:15.12 | 4:35.35 | 95637 | 116296
4 | 25:50.47 | 11:06.15 | 116297 | 166261
5 | 36:56.62 | 3:18.14 | 166262 | 181125
6 | 40:15.01 | 11:57.51 | 181126 | 234951
7 | 52:12.52 | 7:11.11 | 234952 | 267287
8 | 59:23.63 | 15:21.27 | 267288 | 336389


Range status and errors

Selected range

Filename C:\_NL+_\_CD\Motorpsycho - Angels and Daemons at Play (CD6).wav

Peak level 99.8 %
Extraction speed 2.1 X
Range quality 100.0 %
Test CRC 13629088
Copy CRC 13629088
Copy OK

No errors occurred


AccurateRip summary

Track 1 accurately ripped (confidence 1) [E5E4235B] (AR v2)
Track 2 accurately ripped (confidence 1) [CCFCD198] (AR v2)
Track 3 accurately ripped (confidence 1) [017B1599] (AR v2)
Track 4 accurately ripped (confidence 1) [84A3FF89] (AR v2)
Track 5 accurately ripped (confidence 1) [6CA8DC46] (AR v2)
Track 6 accurately ripped (confidence 1) [BA098B81] (AR v2)
Track 7 accurately ripped (confidence 1) [01C6BBDD] (AR v2)
Track 8 accurately ripped (confidence 1) [D570877F] (AR v2)

All tracks accurately ripped

End of status report

–– CUETools DB Plugin V2.1.6

[CTDB TOCID: vfEAbTGExoyjyZozX6HjTLl.cmU-] found
Submit result: vfEAbTGExoyjyZozX6HjTLl.cmU- has been confirmed
Track | CTDB Status
1 | (17/17) Accurately ripped
2 | (17/17) Accurately ripped
3 | (17/17) Accurately ripped
4 | (17/17) Accurately ripped
5 | (17/17) Accurately ripped
6 | (17/17) Accurately ripped
7 | (17/17) Accurately ripped
8 | (17/17) Accurately ripped


==== Log checksum 96E15A7F663684C4C09FAF5EBD61B2D4348DE94090B6F71447A46F43984BDEB3 ====


All thanks go to tatuk

Motorpsycho or Motorpsycho in my Blog

Download Motorpsycho - Angels and Daemons at Play (2016):