Subcategories

Mound City Blue Blowers - 1935-1936 (1996)

Posted By: gribovar
Mound City Blue Blowers - 1935-1936 (1996)

Mound City Blue Blowers - 1935-1936 (1996)
EAC Rip | FLAC (tracks+.cue+log) - 184 MB | MP3 CBR 320 kbps (LAME 3.93) - 176 MB | Covers (5 MB) included
Genre: Jazz, Swing | RAR 3% Rec. | Label: Classics Records (CLASSICS 895)

The Mound City Blue Blowers originally made history with a dozen high-quality novelty recordings during 1924-25 that featured the trio of Red McKenzie's comb, Dick Slevin's kazoo and banjoist Jack Bland; guitarist Eddie Lang solidified the rhythm on their later six numbers. However, other than McKenzie's participation, those dates had little to do with the 25 recordings on this Classics CD, the last issued under the Mound City Blue Blowers' name. In fact, other than taking four vocals on the first date, McKenzie makes only cameo appearances on kazoo during the remainder of the program, although he had clearly organized the bands. The six sessions feature overlapping personnel with some hot playing from either Bunny Berigan (on four of the dates) or Yank Lawson on trumpet and Eddie Miller or Forrest Crawford on tenor and clarinet. In addition to McKenzie, guitarist Nappy Lamare has eight vocals; there are also five from Billy Wilson, four from Spooky Dickenson and two by a vocal group. Only "High Society" and "Muskrat Ramble" are instrumentals, although there are strong solos on nearly every number. The music falls between Dixieland and small-group swing and is most notable for the playing of Berigan.
Tracklist:
01. What's The Reason (I'm Not Pleasin' You)
02. She's A Latin From Manhattan
03. You've Been Takin' Lessons
04. Indiana
05. Red Sails In The Sunset
06. I'm Sittin' High On A Hill Top
07. On Treasure Island
08. Thanks A Million
09. Eeny Meeny Miney Mo
10. A Little Bit Independent
11. I'm Shootin' High
12. I've Got My Fingers Crossed
13. High Society
14. Muskrat Ramble
15. The Broken Record
16. The Music Goes 'Round And Around
17. I'm Gonna Sit Right Down And Write Myself A Letter
18. Mama Don't Allow It
19. (If I Had) Rhythm In My Nursery Rhymes
20. I Hope Gabriel Likes My Music
21. You Hit The Spot
22. Spreadin' Rhythm Around
23. Saddle Your Blues To A Wild Mustang
24. Wah-Hoo!
25. I'm Gonna Clap My Hands

Total time: 01:12:50

Exact Audio Copy V1.0 beta 3 from 29. August 2011

EAC extraction logfile from 1. October 2013, 7:26

Mound City Blue Blowers / 1935-1936

Used drive : HL-DT-STDVDRAM GT20N Adapter: 2 ID: 0

Read mode : Secure
Utilize accurate stream : Yes
Defeat audio cache : Yes
Make use of C2 pointers : No

Read offset correction : 667
Overread into Lead-In and Lead-Out : No
Fill up missing offset samples with silence : Yes
Delete leading and trailing silent blocks : No
Null samples used in CRC calculations : Yes
Used interface : Native Win32 interface for Win NT & 2000
Gap handling : Appended to previous track

Used output format : User Defined Encoder
Selected bitrate : 1024 kBit/s
Quality : High
Add ID3 tag : No
Command line compressor : C:\Program Files (x86)\Exact Audio Copy\Flac\flac.exe
Additional command line options : -8 -V -T "ARTIST=%artist%" -T "TITLE=%title%" -T "ALBUM=%albumtitle%" -T "DATE=%year%" -T "TRACKNUMBER=%tracknr%" -T "GENRE=%genre%" -T "PERFORMER=%albuminterpret%" -T "COMPOSER=%composer%" %haslyrics%–tag-from-file=LYRICS="%lyricsfile%"%haslyrics% -T "ALBUMARTIST=%albumartist%" -T "DISCNUMBER=%cdnumber%" -T "TOTALDISCS=%totalcds%" -T "TOTALTRACKS=%numtracks%" -T "COMMENT=%comment%" %source% -o %dest%


TOC of the extracted CD

Track | Start | Length | Start sector | End sector
––––––––––––––––––––––––––––-
1 | 0:00.32 | 3:10.20 | 32 | 14301
2 | 3:10.52 | 3:03.60 | 14302 | 28086
3 | 6:14.37 | 3:07.35 | 28087 | 42146
4 | 9:21.72 | 2:48.48 | 42147 | 54794
5 | 12:10.45 | 2:52.65 | 54795 | 67759
6 | 15:03.35 | 3:06.57 | 67760 | 81766
7 | 18:10.17 | 3:06.10 | 81767 | 95726
8 | 21:16.27 | 2:45.33 | 95727 | 108134
9 | 24:01.60 | 2:41.30 | 108135 | 120239
10 | 26:43.15 | 2:53.60 | 120240 | 133274
11 | 29:37.00 | 2:38.67 | 133275 | 145191
12 | 32:15.67 | 2:50.28 | 145192 | 157969
13 | 35:06.20 | 3:00.10 | 157970 | 171479
14 | 38:06.30 | 2:56.35 | 171480 | 184714
15 | 41:02.65 | 3:03.12 | 184715 | 198451
16 | 44:06.02 | 3:10.45 | 198452 | 212746
17 | 47:16.47 | 2:47.63 | 212747 | 225334
18 | 50:04.35 | 3:01.72 | 225335 | 238981
19 | 53:06.32 | 2:40.00 | 238982 | 250981
20 | 55:46.32 | 2:50.60 | 250982 | 263791
21 | 58:37.17 | 2:40.00 | 263792 | 275791
22 | 61:17.17 | 2:39.73 | 275792 | 287789
23 | 63:57.15 | 2:52.05 | 287790 | 300694
24 | 66:49.20 | 3:06.27 | 300695 | 314671
25 | 69:55.47 | 2:54.68 | 314672 | 327789


Track 1

Filename E:\Mound City Blue Blowers - 1935-1936 (1996) [FLAC] {Classics 895}\01 - What's the Reason (I'm Not Pleasing You).wav

Pre-gap length 0:00:02.42

Peak level 95.1 %
Extraction speed 2.3 X
Track quality 100.0 %
Test CRC CED76C6E
Copy CRC CED76C6E
Track not present in AccurateRip database
Copy OK

Track 2

Filename E:\Mound City Blue Blowers - 1935-1936 (1996) [FLAC] {Classics 895}\02 - She's a Latin from Manhattan.wav

Pre-gap length 0:00:03.86

Peak level 82.6 %
Extraction speed 2.5 X
Track quality 100.0 %
Test CRC 1A51987B
Copy CRC 1A51987B
Track not present in AccurateRip database
Copy OK

Track 3

Filename E:\Mound City Blue Blowers - 1935-1936 (1996) [FLAC] {Classics 895}\03 - You've Been Takin' Lessons.wav

Pre-gap length 0:00:03.73

Peak level 72.6 %
Extraction speed 2.6 X
Track quality 100.0 %
Test CRC 4834F747
Copy CRC 4834F747
Track not present in AccurateRip database
Copy OK

Track 4

Filename E:\Mound City Blue Blowers - 1935-1936 (1996) [FLAC] {Classics 895}\04 - Indiana.wav

Pre-gap length 0:00:03.80

Peak level 78.7 %
Extraction speed 1.8 X
Track quality 99.9 %
Test CRC 45883140
Copy CRC 45883140
Track not present in AccurateRip database
Copy OK

Track 5

Filename E:\Mound City Blue Blowers - 1935-1936 (1996) [FLAC] {Classics 895}\05 - Red Sails in the Sunset.wav

Pre-gap length 0:00:03.60

Peak level 76.2 %
Extraction speed 1.5 X
Track quality 100.0 %
Test CRC 73C3FB8F
Copy CRC 73C3FB8F
Track not present in AccurateRip database
Copy OK

Track 6

Filename E:\Mound City Blue Blowers - 1935-1936 (1996) [FLAC] {Classics 895}\06 - I'm Sittin' High on a Hill Top.wav

Pre-gap length 0:00:03.60

Peak level 80.6 %
Extraction speed 1.5 X
Track quality 100.0 %
Test CRC EE812E03
Copy CRC EE812E03
Track not present in AccurateRip database
Copy OK

Track 7

Filename E:\Mound City Blue Blowers - 1935-1936 (1996) [FLAC] {Classics 895}\07 - On Treasure Island.wav

Pre-gap length 0:00:03.60

Peak level 74.6 %
Extraction speed 1.6 X
Track quality 100.0 %
Test CRC 2C9004C2
Copy CRC 2C9004C2
Track not present in AccurateRip database
Copy OK

Track 8

Filename E:\Mound City Blue Blowers - 1935-1936 (1996) [FLAC] {Classics 895}\08 - Thanks a Million.wav

Pre-gap length 0:00:03.93

Peak level 73.5 %
Extraction speed 1.7 X
Track quality 100.0 %
Test CRC EF3D0705
Copy CRC EF3D0705
Track not present in AccurateRip database
Copy OK

Track 9

Filename E:\Mound City Blue Blowers - 1935-1936 (1996) [FLAC] {Classics 895}\09 - Eeny Meeny Meiny Mo.wav

Pre-gap length 0:00:03.64

Peak level 84.6 %
Extraction speed 1.7 X
Track quality 100.0 %
Test CRC 022C774C
Copy CRC 022C774C
Track not present in AccurateRip database
Copy OK

Track 10

Filename E:\Mound City Blue Blowers - 1935-1936 (1996) [FLAC] {Classics 895}\10 - A Little Bit Independent.wav

Pre-gap length 0:00:03.86

Peak level 84.6 %
Extraction speed 1.8 X
Track quality 100.0 %
Test CRC D9455C6E
Copy CRC D9455C6E
Track not present in AccurateRip database
Copy OK

Track 11

Filename E:\Mound City Blue Blowers - 1935-1936 (1996) [FLAC] {Classics 895}\11 - I'm Shooting High.wav

Pre-gap length 0:00:03.84

Peak level 94.3 %
Extraction speed 1.8 X
Track quality 100.0 %
Test CRC 2EF30FA1
Copy CRC 2EF30FA1
Track not present in AccurateRip database
Copy OK

Track 12

Filename E:\Mound City Blue Blowers - 1935-1936 (1996) [FLAC] {Classics 895}\12 - I've Got My Fingers Crossed.wav

Pre-gap length 0:00:03.82

Peak level 99.2 %
Extraction speed 1.9 X
Track quality 100.0 %
Test CRC C983824D
Copy CRC C983824D
Track not present in AccurateRip database
Copy OK

Track 13

Filename E:\Mound City Blue Blowers - 1935-1936 (1996) [FLAC] {Classics 895}\13 - High Society.wav

Pre-gap length 0:00:03.70

Peak level 94.9 %
Extraction speed 1.9 X
Track quality 100.0 %
Test CRC D812EB35
Copy CRC D812EB35
Track not present in AccurateRip database
Copy OK

Track 14

Filename E:\Mound City Blue Blowers - 1935-1936 (1996) [FLAC] {Classics 895}\14 - Muskrat Ramble.wav

Pre-gap length 0:00:03.60

Peak level 81.6 %
Extraction speed 2.0 X
Track quality 100.0 %
Test CRC F086F4C0
Copy CRC F086F4C0
Track not present in AccurateRip database
Copy OK

Track 15

Filename E:\Mound City Blue Blowers - 1935-1936 (1996) [FLAC] {Classics 895}\15 - The Broken Record.wav

Pre-gap length 0:00:03.97

Peak level 99.2 %
Extraction speed 2.1 X
Track quality 100.0 %
Test CRC 65D87CBF
Copy CRC 65D87CBF
Track not present in AccurateRip database
Copy OK

Track 16

Filename E:\Mound City Blue Blowers - 1935-1936 (1996) [FLAC] {Classics 895}\16 - The Music Goes 'Round and Around.wav

Pre-gap length 0:00:03.76

Peak level 81.7 %
Extraction speed 2.2 X
Track quality 100.0 %
Test CRC 6AB7FEA1
Copy CRC 6AB7FEA1
Track not present in AccurateRip database
Copy OK

Track 17

Filename E:\Mound City Blue Blowers - 1935-1936 (1996) [FLAC] {Classics 895}\17 - I'm Gonna Sit Right Down (And Write Myself a Letter).wav

Pre-gap length 0:00:03.69

Peak level 83.6 %
Extraction speed 2.1 X
Track quality 100.0 %
Test CRC A3D5B29E
Copy CRC A3D5B29E
Track not present in AccurateRip database
Copy OK

Track 18

Filename E:\Mound City Blue Blowers - 1935-1936 (1996) [FLAC] {Classics 895}\18 - Mama Don't Allow It.wav

Pre-gap length 0:00:03.90

Peak level 75.2 %
Extraction speed 2.2 X
Track quality 100.0 %
Test CRC 57B4E2A5
Copy CRC 57B4E2A5
Track not present in AccurateRip database
Copy OK

Track 19

Filename E:\Mound City Blue Blowers - 1935-1936 (1996) [FLAC] {Classics 895}\19 - (If I Had) Rhythm in My Nursery Rhymes.wav

Pre-gap length 0:00:03.82

Peak level 82.0 %
Extraction speed 1.8 X
Track quality 99.9 %
Test CRC DF1F07EE
Copy CRC DF1F07EE
Track not present in AccurateRip database
Copy OK

Track 20

Filename E:\Mound City Blue Blowers - 1935-1936 (1996) [FLAC] {Classics 895}\20 - I Hope Gabriel Likes My Music.wav

Pre-gap length 0:00:03.80

Peak level 85.8 %
Extraction speed 2.3 X
Track quality 100.0 %
Test CRC 7C327821
Copy CRC 7C327821
Track not present in AccurateRip database
Copy OK

Track 21

Filename E:\Mound City Blue Blowers - 1935-1936 (1996) [FLAC] {Classics 895}\21 - You Hit the Spot.wav

Pre-gap length 0:00:03.49

Peak level 96.8 %
Extraction speed 1.9 X
Track quality 99.9 %
Test CRC 27ADFD3F
Copy CRC 27ADFD3F
Track not present in AccurateRip database
Copy OK

Track 22

Filename E:\Mound City Blue Blowers - 1935-1936 (1996) [FLAC] {Classics 895}\22 - Spreadin' Rhythm Around.wav

Pre-gap length 0:00:03.60

Peak level 88.6 %
Extraction speed 1.9 X
Track quality 99.9 %
Test CRC C4A6C92C
Copy CRC C4A6C92C
Track not present in AccurateRip database
Copy OK

Track 23

Filename E:\Mound City Blue Blowers - 1935-1936 (1996) [FLAC] {Classics 895}\23 - Saddle Your Blues to a Wild Mustang.wav

Pre-gap length 0:00:03.57

Peak level 78.8 %
Extraction speed 2.4 X
Track quality 100.0 %
Test CRC 032EA1E0
Copy CRC 032EA1E0
Track not present in AccurateRip database
Copy OK

Track 24

Filename E:\Mound City Blue Blowers - 1935-1936 (1996) [FLAC] {Classics 895}\24 - Wah-Hoo!.wav

Pre-gap length 0:00:03.60

Peak level 59.8 %
Extraction speed 2.5 X
Track quality 100.0 %
Test CRC AF8BA827
Copy CRC AF8BA827
Track not present in AccurateRip database
Copy OK

Track 25

Filename E:\Mound City Blue Blowers - 1935-1936 (1996) [FLAC] {Classics 895}\25 - I'm Gonna Clap My Hands.wav

Pre-gap length 0:00:03.46

Peak level 55.1 %
Extraction speed 2.5 X
Track quality 100.0 %
Test CRC 6A98F35F
Copy CRC 6A98F35F
Track not present in AccurateRip database
Copy OK


None of the tracks are present in the AccurateRip database

No errors occurred

End of status report

==== Log checksum 033F700D23DAAA884B17AA6A58B1C3DD05B1F292AAFFB8952B6BB30413CD3608 ====

[CUETools log; Date: 14.03.2018 22:35:38; Version: 2.1.4]
Pregap length 00:00:32.
[CTDB TOCID: 9MPhalLW7S4bL1X0FXQpRreBsiM-] found.
Track | CTDB Status
1 | (1/1) Accurately ripped
2 | (1/1) Accurately ripped
3 | (1/1) Accurately ripped
4 | (1/1) Accurately ripped
5 | (1/1) Accurately ripped
6 | (1/1) Accurately ripped
7 | (1/1) Accurately ripped
8 | (1/1) Accurately ripped
9 | (1/1) Accurately ripped
10 | (1/1) Accurately ripped
11 | (1/1) Accurately ripped
12 | (1/1) Accurately ripped
13 | (1/1) Accurately ripped
14 | (1/1) Accurately ripped
15 | (1/1) Accurately ripped
16 | (1/1) Accurately ripped
17 | (1/1) Accurately ripped
18 | (1/1) Accurately ripped
19 | (1/1) Accurately ripped
20 | (1/1) Accurately ripped
21 | (1/1) Accurately ripped
22 | (1/1) Accurately ripped
23 | (1/1) Accurately ripped
24 | (1/1) Accurately ripped
25 | (1/1) Accurately ripped
[AccurateRip ID: 0041a73d-0499360d-8d111219] found.
Track [ CRC | V2 ] Status
01 [7dba6ade|7eb5e479] (1+0/2) Accurately ripped
02 [199da577|3203c2d9] (1+0/2) Accurately ripped
03 [9da29f49|bd842232] (1+0/2) Accurately ripped
04 [7dff9cd0|c59b8292] (1+0/2) Accurately ripped
05 [fcc5ece7|1faa74c2] (1+0/2) Accurately ripped
06 [666ec1d6|09b49683] (1+0/2) Accurately ripped
07 [212e64ad|c7d79f1c] (1+0/2) Accurately ripped
08 [980bbd1b|935d5e78] (1+0/2) Accurately ripped
09 [bf3eff78|a4e0d90d] (1+0/2) Accurately ripped
10 [4543f16c|361f2a38] (1+0/2) Accurately ripped
11 [0903aed0|31ef44a6] (1+0/2) Accurately ripped
12 [52fd8473|81a6a070] (1+0/2) Accurately ripped
13 [7ec844b9|c7daa293] (1+0/2) Accurately ripped
14 [d0e1d76f|4e666357] (1+0/2) Accurately ripped
15 [8e969eda|99a671fd] (1+0/2) Accurately ripped
16 [95459d45|c90c0b21] (1+0/2) Accurately ripped
17 [1a200fc6|82f99aa2] (1+0/2) Accurately ripped
18 [dff3cf32|7a1dbcac] (1+0/2) Accurately ripped
19 [6c071296|7836101d] (1+0/2) Accurately ripped
20 [65c633df|eb19e8d7] (1+0/2) Accurately ripped
21 [8151177b|e67e7ed8] (1+0/2) Accurately ripped
22 [204edf50|96ea2d93] (1+0/2) Accurately ripped
23 [a254699b|455dde6b] (1+0/2) Accurately ripped
24 [f9d3b6af|d7fb9722] (1+0/2) Accurately ripped
25 [6cf7d153|784ae16e] (1+0/2) Accurately ripped
Offsetted by -66:
01 [16abc7fc] (1/2) Accurately ripped
02 [ecd4e991] (1/2) Accurately ripped
03 [07da940d] (1/2) Accurately ripped
04 [5060db68] (1/2) Accurately ripped
05 [38cb03cd] (1/2) Accurately ripped
06 [bf084f0e] (1/2) Accurately ripped
07 [50d2d85d] (1/2) Accurately ripped
08 [7e5b5bd1] (1/2) Accurately ripped
09 [974535ee] (1/2) Accurately ripped
10 [fbdb3c72] (1/2) Accurately ripped
11 [3f24f1f4] (1/2) Accurately ripped
12 [59ad432d] (1/2) Accurately ripped
13 [381e8fd5] (1/2) Accurately ripped
14 [a4b50c2d] (1/2) Accurately ripped
15 [8347d62e] (1/2) Accurately ripped
16 [7841333f] (1/2) Accurately ripped
17 [1c76bdcc] (1/2) Accurately ripped
18 [38a95138] (1/2) Accurately ripped
19 [54751448] (1/2) Accurately ripped
20 [b86cd505] (1/2) Accurately ripped
21 [201a370d] (1/2) Accurately ripped
22 [a223a39a] (1/2) Accurately ripped
23 [6778b1e9] (1/2) Accurately ripped
24 [096b2797] (1/2) Accurately ripped
25 [abc41e67] (1/2) Accurately ripped

Track Peak [ CRC32 ] [W/O NULL] [ LOG ]
– 99,2 [A3F43D77] [05BD5388]
01 95,1 [CED76C6E] [6ABE718E] CRC32
02 82,6 [1A51987B] [888B76CC] CRC32
03 72,6 [4834F747] [236CE251] CRC32
04 78,7 [45883140] [418EA128] CRC32
05 76,2 [73C3FB8F] [76EB8929] CRC32
06 80,6 [EE812E03] [3BB64573] CRC32
07 74,6 [2C9004C2] [4D8C7A76] CRC32
08 73,5 [EF3D0705] [61CC8A5F] CRC32
09 84,6 [022C774C] [C1928DBD] CRC32
10 84,6 [D9455C6E] [0A08B407] CRC32
11 94,3 [2EF30FA1] [7D24B332] CRC32
12 99,2 [C983824D] [2AF571BD] CRC32
13 94,9 [D812EB35] [8314ECB1] CRC32
14 81,6 [F086F4C0] [741D270C] CRC32
15 99,2 [65D87CBF] [66F76C6E] CRC32
16 81,7 [6AB7FEA1] [37BE47C7] CRC32
17 83,6 [A3D5B29E] [4AF99FFB] CRC32
18 75,2 [57B4E2A5] [E8B1BCDA] CRC32
19 82,0 [DF1F07EE] [7C28CE7C] CRC32
20 85,8 [7C327821] [853ECA7F] CRC32
21 96,8 [27ADFD3F] [61C08143] CRC32
22 88,6 [C4A6C92C] [11CC637A] CRC32
23 78,8 [032EA1E0] [1BB9EA2B] CRC32
24 59,8 [AF8BA827] [61A3AF8C] CRC32
25 55,0 [6A98F35F] [3D719F57] CRC32

Thanks to flydguzmon