Subcategories

Mr. Big - What If... (2010) [Japanese Ed.]

Posted By: v3122
Mr. Big - What If... (2010) [Japanese Ed.]

Mr. Big - What If… (2010)
EAC | Flac(Image) + Cue + Log & MP3 CBR 320Kbps
WHD Entertainment, IECP-10236 | ~ 394 or 124 Mb | Artwork(jpg) -> 83 Mb
Hard Rock, Glam Rock

Mr. Big were one of the last hair metal outfits to score a hit before January 1992, when Nirvana’s Nevermind topped the charts and ushered in the grunge revolution. With America starting to shift its focus away from ‘80s music, Mr. Big turned their focus to countries like Japan, where audiences remained sympathetic to the band’s supersized hard rock until their breakup in 2002. Released eight years later, What If… marks the return of Mr. Big’s original lineup, with guitarist Paul Gilbert (who originally left in 1997) joining his bandmates for a back-to-basics collection of muscled rock songs and over-proficient instrumentation. Of course, 2010 isn’t exactly the right time for a Mr. Big album – it’s nearly two decades too late – but What If… has something working for it that none of the earlier Mr. Big albums had: nostalgia. Those who miss the hairsprayed days of guitar virtuosos and Reagan/Bush-era machismo are in luck, since this is a product of an earlier time, with few signs of the 21st century apart from vocalist Eric Martin’s diminishing range and his bandmates’ shorn heads. Gilbert still fingertaps his way through more than a dozen solos, Billy Sheehan still plays the bass like a guitar, and the full band still sings harmony, an asset that helped Mr. Big differentiate themselves from other hair metal groups during the genre’s heyday. The album’s biggest asset, however, is nostalgia, and those who are willing to forgive the somewhat outdated approach of What If… will get the most out of this reunion record.

by Andrew Leahey, allmusic
Mr. Big - What If… (2010):

Mr. Big - What If... (2010) [Japanese Ed.]

Tracklist:

01. Undertow
02. American Beauty
03. Stranger In My Life
04. Nobody Left To Blame
05. Still Ain't Enough For Me
06. Once Upon A Time
07. As Far As I Can See
08. All The Way Up
09. I Won't Get In My Way
10. Around The World
11. I Get The Feeling
12. Kill Me With A Kiss (bonus)

Exact Audio Copy V1.3 from 2. September 2016

EAC extraction logfile from 25. June 2019, 5:54

Mr. Big / What If… (IECP-10236)

Used drive : ASUS DRW-24B1ST Adapter: 1 ID: 1

Read mode : Secure
Utilize accurate stream : Yes
Defeat audio cache : Yes
Make use of C2 pointers : No

Read offset correction : 6
Overread into Lead-In and Lead-Out : No
Fill up missing offset samples with silence : Yes
Delete leading and trailing silent blocks : No
Null samples used in CRC calculations : Yes
Used interface : Native Win32 interface for Win NT & 2000

Used output format : User Defined Encoder
Selected bitrate : 1024 kBit/s
Quality : High
Add ID3 tag : No
Command line compressor : E:\Install\All for Music\Lossless\FLAC_1.3.2\flac-1.3.2-git-20170314-x64-icl\flac.exe
Additional command line options : -V -8 -T "Genre=%genre%" -T "Artist=%artist%" -T "Title=%title%" -T "Album=%albumtitle%" -T "Date=%year%" -T "Tracknumber=%tracknr%" -T "Comment=%comment%" %source%


TOC of the extracted CD

Track | Start | Length | Start sector | End sector
––––––––––––––––––––––––––––-
1 | 0:00.00 | 4:48.56 | 0 | 21655
2 | 4:48.56 | 3:44.23 | 21656 | 38478
3 | 8:33.04 | 4:25.43 | 38479 | 58396
4 | 12:58.47 | 4:19.41 | 58397 | 77862
5 | 17:18.13 | 3:04.02 | 77863 | 91664
6 | 20:22.15 | 4:02.40 | 91665 | 109854
7 | 24:24.55 | 3:54.52 | 109855 | 127456
8 | 28:19.32 | 5:12.03 | 127457 | 150859
9 | 33:31.35 | 4:39.44 | 150860 | 171828
10 | 38:11.04 | 3:51.10 | 171829 | 189163
11 | 42:02.14 | 4:34.30 | 189164 | 209743
12 | 46:36.44 | 5:59.12 | 209744 | 236680


Range status and errors

Selected range

Filename E:\Ginger Devil\Mr. Big - What If… (IECP-10236)\Mr. Big - What If… (IECP-10236).wav

Peak level 98.8 %
Extraction speed 5.4 X
Range quality 100.0 %
Test CRC D60707CC
Copy CRC D60707CC
Copy OK

No errors occurred


AccurateRip summary

Track 1 accurately ripped (confidence 26) [54C9409D] (AR v2)
Track 2 accurately ripped (confidence 26) [3FBF4E28] (AR v2)
Track 3 accurately ripped (confidence 25) [4514C77D] (AR v2)
Track 4 accurately ripped (confidence 26) [8C25B288] (AR v2)
Track 5 accurately ripped (confidence 26) [C07A0463] (AR v2)
Track 6 accurately ripped (confidence 26) [7C2701E4] (AR v2)
Track 7 accurately ripped (confidence 25) [14E361F6] (AR v2)
Track 8 accurately ripped (confidence 26) [A075B182] (AR v2)
Track 9 accurately ripped (confidence 25) [46AC9C8A] (AR v2)
Track 10 accurately ripped (confidence 26) [A76CE732] (AR v2)
Track 11 accurately ripped (confidence 26) [F0CAC806] (AR v2)
Track 12 accurately ripped (confidence 26) [C2808636] (AR v2)

All tracks accurately ripped

End of status report

–– CUETools DB Plugin V2.1.6

[CTDB TOCID: 9ntnByJg0k53PwcluREpAF83FR8-] database access error: Невозможно разрешить удаленное имя: 'db.cuetools.net'


==== Log checksum F58007C8220F1D989FCC8DE7799D695D34494B12306D770D94B6B3F95A7B1E64 ====


[CUETools log; Date: 11.08.2019 11:07:36; Version: 2.1.4]
[AccurateRip ID: 0016a382-00d3a733-8c0c530c] found.
Track [ CRC | V2 ] Status
01 [c070d4b2|54c9409d] (10+26/38) Accurately ripped
02 [476b79f5|3fbf4e28] (10+26/38) Accurately ripped
03 [216237c7|4514c77d] (10+25/38) Accurately ripped
04 [46033ea8|8c25b288] (10+26/38) Accurately ripped
05 [84c91f8d|c07a0463] (10+26/38) Accurately ripped
06 [b0dbd5e0|7c2701e4] (10+26/38) Accurately ripped
07 [0b2c5c74|14e361f6] (10+25/38) Accurately ripped
08 [d97ead64|a075b182] (10+26/38) Accurately ripped
09 [ebd3b09c|46ac9c8a] (10+25/37) Accurately ripped
10 [d7ef62ae|a76ce732] (10+26/38) Accurately ripped
11 [1dc54e5b|f0cac806] (10+26/38) Accurately ripped
12 [37ff3cca|c2808636] (10+26/38) Accurately ripped
Offsetted by -18:
01 [8b0a411f] (00/38) No match (V2 was not tested)
02 [9f3ada7b] (00/38) No match (V2 was not tested)
03 [afa81346] (00/38) No match (V2 was not tested)
04 [791f7426] (00/38) No match (V2 was not tested)
05 [da4f3ed5] (00/38) No match (V2 was not tested)
06 [5d4165c2] (00/38) No match (V2 was not tested)
07 [6736c519] (00/38) No match (V2 was not tested)
08 [928187e5] (00/38) No match (V2 was not tested)
09 [3f07cfa6] (00/37) No match (V2 was not tested)
10 [20362e6c] (00/38) No match (V2 was not tested)
11 [90690e56] (00/38) No match (V2 was not tested)
12 [8097ea15] (00/38) No match (V2 was not tested)

Track Peak [ CRC32 ] [W/O NULL] [ LOG ]
– 98,8 [D60707CC] [F18B733A] CRC32
01 98,8 [17B48033] [0D0FB2CE]
02 98,8 [D8873E09] [2284731A]
03 98,8 [20066727] [FD9E6E09]
04 98,8 [7CEDB003] [FC291544]
05 98,8 [F8EBDE6F] [0811D0AA]
06 98,8 [3B1C3AE2] [C9B1D1D3]
07 98,8 [CFF4E4A4] [B64150F4]
08 98,8 [058E1DB5] [F671DC47]
09 98,8 [EA4256EC] [DC55B3AE]
10 98,8 [44199E8C] [229F9111]
11 98,8 [83CA49B7] [C1297D37]
12 98,8 [7C1E2DA7] [90ACC982]


Mr. Big - What If... (2010) [Japanese Ed.]

All thanks go to Ginger Devil

Mr. Big in my Blog

Download Mr. Big - What If… (2010):