Muddy Waters - Folk Singer (1963) [Analogue Productions, Remastered 2011] Audio CD Layer

Posted By: Designol
Muddy Waters - Folk Singer (1963) [Analogue Productions, Remastered 2011] Audio CD Layer

Muddy Waters - Folk Singer (1963)
Mastered by Kevin Gray at Cohearent Audio, 2011
EAC | FLAC | Tracks (Cue&Log) ~ 207 Mb | Mp3 (CBR320) ~ 99 Mb | Scans included | 00:40:35
Chicago Blues, Delta Blues | Label: Analogue Productions | # CAPB 1483 SA

Folk Singer is the fourth studio album by Muddy Waters, released in April 1964 by Chess Records. The album features Waters on acoustic guitar, backed by Willie Dixon on string bass, Clifton James on drums, and Buddy Guy on acoustic guitar. It is Waters's only all-acoustic album. Numerous reissues of Folk Singer include bonus tracks from two subsequent sessions, in April 1964 and October 1964. Despite not charting in any country, Folk Singer received critical acclaim; most reviewers praised its high-quality sound, especially on remastered versions, as well as the instrumentation. In 2003, the album was ranked number 280 on Rolling Stone magazine's list of the 500 greatest albums of all time.

Muddy's "unplugged" album was cut in September of 1963 and still sounds fresh and vital today. It was Muddy simply returning to his original style on a plain acoustic guitar in a well-tuned room with Willie Dixon on string bass, Clifton James on drums, and Buddy Guy on second acoustic guitar. The nine tracks are divvied up between full rhythm section treatments with Buddy and Muddy as a duo and the final track, "Feel Like Going Home," which Waters approaches solo. What makes this version of the album a worthwhile buy is the inclusion of five bonus tracks from his next two sessions: An April 1964 session brings us Willie Dixon's "The Same Thing" and Muddy's "You Can't Lose What You Never Had," while the October 1964 session features J.T. Brown on sax and clarinet on "Short Dress Woman" and "My John the Conqueror Root," as well as "Put Me in Your Lay Away," another strong side. Folk Singer offers both sides of Muddy from the early '60s.

Review by Cub Koda, Allmusic.com

Muddy Waters - Folk Singer (1963) [Analogue Productions, Remastered 2011] Audio CD Layer



Tracklist:

01. My Home Is in the Delta (4:01)
02. Long Distance (3:33)
03. My Captain (5:13)
04. Good Morning School Girl (3:15)
05. You Gonna Need My Help (3:12)
06. Cold Weather Blues (4:42)
07. Big Leg Woman (3:28)
08. Country Boy (3:29)
09. Feel Like Going Home (3:54)
10. The Same Thing (2:46)
11. You Can't Lose What You Ain't Never Had (3:01)


Exact Audio Copy V1.0 beta 3 from 29. August 2011

EAC extraction logfile from 29. April 2013, 18:23

Muddy Waters / Folk Singer

Used drive : HL-DT-STBD-RE WH14NS40 Adapter: 0 ID: 1

Read mode : Secure
Utilize accurate stream : Yes
Defeat audio cache : Yes
Make use of C2 pointers : No

Read offset correction : 6
Overread into Lead-In and Lead-Out : No
Fill up missing offset samples with silence : Yes
Delete leading and trailing silent blocks : No
Null samples used in CRC calculations : Yes
Used interface : Native Win32 interface for Win NT & 2000
Gap handling : Appended to previous track

Used output format : User Defined Encoder
Selected bitrate : 768 kBit/s
Quality : High
Add ID3 tag : No
Command line compressor : C:\Program Files (x86)\Exact Audio Copy\FLAC\FLAC.EXE
Additional command line options : -8 -V -T "ARTIST=%artist%" -T "TITLE=%title%" -T "ALBUM=%albumtitle%" -T "DATE=%year%" -T "TRACKNUMBER=%tracknr%" -T "GENRE=%genre%" -T "PERFORMER=%albuminterpret%" -T "COMPOSER=%composer%" %haslyrics%–tag-from-file=LYRICS="%lyricsfile%"%haslyrics% -T "ALBUMARTIST=%albumartist%" -T "DISCNUMBER=%cdnumber%" -T "TOTALDISCS=%totalcds%" -T "TOTALTRACKS=%numtracks%" -T "COMMENT=%comment%" %source% -o %dest%


TOC of the extracted CD

Track | Start | Length | Start sector | End sector
––––––––––––––––––––––––––––-
1 | 0:00.00 | 4:01.06 | 0 | 18080
2 | 4:01.06 | 3:32.55 | 18081 | 34035
3 | 7:33.61 | 5:12.53 | 34036 | 57488
4 | 12:46.39 | 3:15.15 | 57489 | 72128
5 | 16:01.54 | 3:12.19 | 72129 | 86547
6 | 19:13.73 | 4:41.72 | 86548 | 107694
7 | 23:55.70 | 3:28.20 | 107695 | 123314
8 | 27:24.15 | 3:28.54 | 123315 | 138968
9 | 30:52.69 | 3:54.13 | 138969 | 156531
10 | 34:47.07 | 2:46.26 | 156532 | 169007
11 | 37:33.33 | 3:01.05 | 169008 | 182587


Track 1

Filename C:\EACRips\Muddy Waters - Folk Singer (2011) [FLAC] {CAPB 1483 SA, B0015121-26}\01 - My Home is in the Delta.wav

Pre-gap length 0:00:02.00

Peak level 88.9 %
Extraction speed 1.2 X
Track quality 100.0 %
Test CRC CC570BFA
Copy CRC CC570BFA
Accurately ripped (confidence 2) [565B0016] (AR v2)
Copy OK

Track 2

Filename C:\EACRips\Muddy Waters - Folk Singer (2011) [FLAC] {CAPB 1483 SA, B0015121-26}\02 - Long Distance.wav

Pre-gap length 0:00:00.28

Peak level 74.0 %
Extraction speed 1.2 X
Track quality 100.0 %
Test CRC 0C96C183
Copy CRC 0C96C183
Accurately ripped (confidence 2) [A5BAFE6B] (AR v2)
Copy OK

Track 3

Filename C:\EACRips\Muddy Waters - Folk Singer (2011) [FLAC] {CAPB 1483 SA, B0015121-26}\03 - My Captain.wav

Pre-gap length 0:00:00.21

Peak level 67.6 %
Extraction speed 1.3 X
Track quality 99.9 %
Test CRC 430AF261
Copy CRC 430AF261
Accurately ripped (confidence 2) [A5AB351D] (AR v2)
Copy OK

Track 4

Filename C:\EACRips\Muddy Waters - Folk Singer (2011) [FLAC] {CAPB 1483 SA, B0015121-26}\04 - Good Morning School Girl.wav

Pre-gap length 0:00:00.26

Peak level 53.9 %
Extraction speed 1.3 X
Track quality 99.9 %
Test CRC D1EE95E2
Copy CRC D1EE95E2
Accurately ripped (confidence 2) [6AF3D93F] (AR v2)
Copy OK

Track 5

Filename C:\EACRips\Muddy Waters - Folk Singer (2011) [FLAC] {CAPB 1483 SA, B0015121-26}\05 - You Gonna Need my Help.wav

Pre-gap length 0:00:00.21

Peak level 78.0 %
Extraction speed 1.3 X
Track quality 99.9 %
Test CRC 5BCF790D
Copy CRC 5BCF790D
Accurately ripped (confidence 2) [F7D0DF58] (AR v2)
Copy OK

Track 6

Filename C:\EACRips\Muddy Waters - Folk Singer (2011) [FLAC] {CAPB 1483 SA, B0015121-26}\06 - Cold Weather Blues.wav

Pre-gap length 0:00:00.28

Peak level 81.8 %
Extraction speed 1.7 X
Track quality 100.0 %
Test CRC A85AAB9C
Copy CRC A85AAB9C
Track not present in AccurateRip database
Copy OK

Track 7

Filename C:\EACRips\Muddy Waters - Folk Singer (2011) [FLAC] {CAPB 1483 SA, B0015121-26}\07 - Big Leg Woman.wav

Pre-gap length 0:00:00.28

Peak level 42.1 %
Extraction speed 1.7 X
Track quality 100.0 %
Test CRC EA06FBC7
Copy CRC EA06FBC7
Accurately ripped (confidence 2) [4BE81247] (AR v2)
Copy OK

Track 8

Filename C:\EACRips\Muddy Waters - Folk Singer (2011) [FLAC] {CAPB 1483 SA, B0015121-26}\08 - Country Boy.wav

Pre-gap length 0:00:00.26

Peak level 85.8 %
Extraction speed 1.8 X
Track quality 100.0 %
Test CRC 91FAB8F9
Copy CRC 91FAB8F9
Accurately ripped (confidence 2) [1E0AB48D] (AR v2)
Copy OK

Track 9

Filename C:\EACRips\Muddy Waters - Folk Singer (2011) [FLAC] {CAPB 1483 SA, B0015121-26}\09 - Feel Like Going Home.wav

Pre-gap length 0:00:00.28

Peak level 83.8 %
Extraction speed 1.8 X
Track quality 100.0 %
Test CRC 104CD1E5
Copy CRC 104CD1E5
Accurately ripped (confidence 2) [5388BC15] (AR v2)
Copy OK

Track 10

Filename C:\EACRips\Muddy Waters - Folk Singer (2011) [FLAC] {CAPB 1483 SA, B0015121-26}\10 - The Same Thing (bonus).wav

Pre-gap length 0:00:00.28

Peak level 89.6 %
Extraction speed 1.6 X
Track quality 99.9 %
Test CRC AF9B46B4
Copy CRC AF9B46B4
Accurately ripped (confidence 2) [24DC911C] (AR v2)
Copy OK

Track 11

Filename C:\EACRips\Muddy Waters - Folk Singer (2011) [FLAC] {CAPB 1483 SA, B0015121-26}\11 - You Can't Lose What You Aint' Never Had (bonus).wav

Pre-gap length 0:00:00.28

Peak level 100.0 %
Extraction speed 1.9 X
Track quality 100.0 %
Test CRC 0C1488D7
Copy CRC 0C1488D7
Accurately ripped (confidence 2) [78DF07E2] (AR v2)
Copy OK


10 track(s) accurately ripped
1 track(s) not present in the AccurateRip database

Some tracks could not be verified as accurate

No errors occurred

End of status report

–– CUETools DB Plugin V2.1.3

[CTDB TOCID: y0RGFtVYr1MVXKlO2PkKC_4rJF4-] found, Submit result: already submitted
[105a86cc] (5/5) Accurately ripped


==== Log checksum 92E03CCDE51F05BC528BF1FD9EFE4DEE654C61E2089D9131DABB1533D1F06965 ====

[CUETools log; Date: 03.10.2017 1:39:01; Version: 2.1.5]
[CTDB TOCID: y0RGFtVYr1MVXKlO2PkKC_4rJF4-] found.
Track | CTDB Status
1 | (40/40) Accurately ripped
2 | (40/40) Accurately ripped
3 | (40/40) Accurately ripped
4 | (40/40) Accurately ripped
5 | (40/40) Accurately ripped
6 | (39/40) Accurately ripped
7 | (40/40) Accurately ripped
8 | (40/40) Accurately ripped
9 | (40/40) Accurately ripped
10 | (40/40) Accurately ripped
11 | (40/40) Accurately ripped
[AccurateRip ID: 00117e16-00965f0a-9f09820b] found.
Track [ CRC | V2 ] Status
01 [f7022e3e|565b0016] (00+32/32) Accurately ripped
02 [6bb97fba|a5bafe6b] (00+32/32) Accurately ripped
03 [ec9a747f|a5ab351d] (00+32/32) Accurately ripped
04 [2d17b14d|6af3d93f] (00+32/32) Accurately ripped
05 [5abebdfe|f7d0df58] (00+32/32) Accurately ripped
06 [7bada365|d6865522] (00+31/31) Accurately ripped
07 [ed8f715f|4be81247] (00+32/32) Accurately ripped
08 [666c3f6b|1e0ab48d] (00+32/32) Accurately ripped
09 [e25e00d4|5388bc15] (00+32/32) Accurately ripped
10 [a6674c82|24dc911c] (00+32/32) Accurately ripped
11 [768eb4d0|78df07e2] (00+33/33) Accurately ripped

Track Peak [ CRC32 ] [W/O NULL] [ LOG ]
– 100,0 [59230536] [C046C227]
01 88,9 [CC570BFA] [22C129A8] CRC32
02 74,0 [0C96C183] [E7424F8F] CRC32
03 67,6 [430AF261] [DA87B673] CRC32
04 53,9 [D1EE95E2] [7112B694] CRC32
05 78,0 [5BCF790D] [35DE8997] CRC32
06 81,8 [A85AAB9C] [1DADCA9C] CRC32
07 42,1 [EA06FBC7] [BBD2109C] CRC32
08 85,8 [91FAB8F9] [44B2849B] CRC32
09 83,8 [104CD1E5] [6FD910C5] CRC32
10 89,6 [AF9B46B4] [45037B0F] CRC32
11 100,0 [0C1488D7] [A6EB21B6] CRC32

foobar2000 1.2 / Dynamic Range Meter 1.1.1
log date: 2017-10-03 17:45:50

––––––––––––––––––––––––––––––––––––––––
Analyzed: Muddy Waters / Folk Singer
––––––––––––––––––––––––––––––––––––––––

DR Peak RMS Duration Track
––––––––––––––––––––––––––––––––––––––––
DR14 -1.01 dB -23.01 dB 4:01 01-My Home Is in the Delta
DR18 -2.61 dB -25.68 dB 3:33 02-Long Distance
DR17 -3.39 dB -27.56 dB 5:13 03-My Captain
DR15 -5.37 dB -24.29 dB 3:15 04-Good Morning School Girl
DR12 -2.16 dB -20.55 dB 3:12 05-You Gonna Need My Help
DR17 -1.74 dB -28.18 dB 4:42 06-Cold Weather Blues
DR17 -7.51 dB -28.72 dB 3:28 07-Big Leg Woman
DR17 -1.33 dB -23.88 dB 3:29 08-Country Boy
DR15 -1.53 dB -23.47 dB 3:54 09-Feel Like Going Home
DR13 -0.95 dB -17.78 dB 2:46 10-The Same Thing
DR14 0.00 dB -16.34 dB 3:01 11-You Can't Lose What You Ain't Never Had
––––––––––––––––––––––––––––––––––––––––

Number of tracks: 11
Official DR value: DR16

Samplerate: 44100 Hz
Channels: 2
Bits per sample: 16
Bitrate: 840 kbps
Codec: FLAC
================================================================================

Muddy Waters - Folk Singer (1963) [Analogue Productions, Remastered 2011] Audio CD Layer

Muddy Waters - Folk Singer (1963) [Analogue Productions, Remastered 2011] Audio CD Layer