Subcategories

Muddy Waters - Trouble No More (Singles 1955-1959) (1989)

Posted By: uff
Muddy Waters - Trouble No More (Singles 1955-1959) (1989)

Muddy Waters - Trouble No More (Singles 1955-1959) (1989)
Blues | 1cd | EAC Rip | Flac + Cue + Log | covers
MCA, UICY-3418 | rem: 2004 | 255Mb

This is an excellent compilation of some of Muddy Waters's lesser-anthologized singles, all of them dating from the late '50s. Some of these were surprisingly hard to acquire in any form until this appeared; the original version of "Got My Mojo Working," and for instance, as well as some of his higher-profile tracks, like "Rock Me," "Trouble No More," "Close to You," and "Don't Go No Further." ~Allmusic

Track listing
01. Sugar Sweet (2:30)
02. Trouble No More (2:40)
03. All Aboard (2:54)
04. Don't Go No Further (2:53)
05. I Love the Life I Live, I Live the Life I Love (2:49)
06. Rock Me (3:10)
07. Got My Mojo Working (2:51)
08. She's Got It (2:48)
09. Close to You (3:04)
10. Mean Mistreater (2:46)
11. Take the Bitter With the Sweet (3:06)
12. She's into Something (2:44)
13. Diamonds at Your Feet (2:24)
14. Look What You've Done (2:23)


Exact Audio Copy V1.0 beta 1 from 15. November 2010

EAC extraction logfile from 18. May 2011, 8:51

Muddy Waters / Trouble No More Singles

Used drive : ATAPI DVD A DH20A4P Adapter: 3 ID: 0

Read mode : Secure
Utilize accurate stream : Yes
Defeat audio cache : Yes
Make use of C2 pointers : No

Read offset correction : 6
Overread into Lead-In and Lead-Out : No
Fill up missing offset samples with silence : Yes
Delete leading and trailing silent blocks : No
Null samples used in CRC calculations : No
Used interface : Native Win32 interface for Win NT & 2000
Gap handling : Appended to previous track

Used output format : User Defined Encoder
Selected bitrate : 768 kBit/s
Quality : High
Add ID3 tag : No
Command line compressor : C:\Program Files\Exact Audio Copy\FLAC\FLAC.EXE
Additional command line options : -8 -V -T "ARTIST=%a" -T "TITLE=%t" -T "ALBUM=%g" -T "DATE=%y" -T "TRACKNUMBER=%n" -T "GENRE=%m" -T "COMMENT=%e" %j–picture="%i"%j %s -o %d


TOC of the extracted CD

Track | Start | Length | Start sector | End sector
––––––––––––––––––––––––––––-
1 | 0:00.00 | 2:31.15 | 0 | 11339
2 | 2:31.15 | 2:40.70 | 11340 | 23409
3 | 5:12.10 | 2:56.05 | 23410 | 36614
4 | 8:08.15 | 2:55.17 | 36615 | 49756
5 | 11:03.32 | 2:51.70 | 49757 | 62651
6 | 13:55.27 | 3:11.53 | 62652 | 77029
7 | 17:07.05 | 2:51.47 | 77030 | 89901
8 | 19:58.52 | 2:48.50 | 89902 | 102551
9 | 22:47.27 | 3:05.70 | 102552 | 116496
10 | 25:53.22 | 2:47.28 | 116497 | 129049
11 | 28:40.50 | 3:07.47 | 129050 | 143121
12 | 31:48.22 | 2:47.33 | 143122 | 155679
13 | 34:35.55 | 2:27.00 | 155680 | 166704
14 | 37:02.55 | 2:23.05 | 166705 | 177434


Track 1

Filename C:\My Rips\Muddy Waters - Trouble No More Singles\01 - Sugar Sweet.wav

Pre-gap length 0:00:02.00

Peak level 98.8 %
Extraction speed 1.6 X
Track quality 100.0 %
Copy CRC 92D82406
Track not present in AccurateRip database
Copy OK

Track 2

Filename C:\My Rips\Muddy Waters - Trouble No More Singles\02 - Trouble No More.wav

Pre-gap length 0:00:01.10

Peak level 97.5 %
Extraction speed 1.7 X
Track quality 100.0 %
Copy CRC 2BB92AA0
Track not present in AccurateRip database
Copy OK

Track 3

Filename C:\My Rips\Muddy Waters - Trouble No More Singles\03 - All Aboard.wav

Peak level 99.9 %
Extraction speed 1.9 X
Track quality 100.0 %
Copy CRC 715F0B05
Track not present in AccurateRip database
Copy OK

Track 4

Filename C:\My Rips\Muddy Waters - Trouble No More Singles\04 - Don't Go No Further.wav

Pre-gap length 0:00:01.58

Peak level 99.5 %
Extraction speed 2.0 X
Track quality 100.0 %
Copy CRC 836273C1
Track not present in AccurateRip database
Copy OK

Track 5

Filename C:\My Rips\Muddy Waters - Trouble No More Singles\05 - I Love the Life I Live, I Live the Life I Love.wav

Pre-gap length 0:00:01.22

Peak level 98.8 %
Extraction speed 2.2 X
Track quality 100.0 %
Copy CRC D1628A57
Track not present in AccurateRip database
Copy OK

Track 6

Filename C:\My Rips\Muddy Waters - Trouble No More Singles\06 - Rock Me.wav

Pre-gap length 0:00:01.72

Peak level 98.8 %
Extraction speed 2.3 X
Track quality 100.0 %
Copy CRC 60CF6FF6
Track not present in AccurateRip database
Copy OK

Track 7

Filename C:\My Rips\Muddy Waters - Trouble No More Singles\07 - Got My Mojo Working.wav

Pre-gap length 0:00:01.14

Peak level 97.3 %
Extraction speed 2.4 X
Track quality 100.0 %
Copy CRC AA144EA4
Track not present in AccurateRip database
Copy OK

Track 8

Filename C:\My Rips\Muddy Waters - Trouble No More Singles\08 - She's Got It.wav

Peak level 94.9 %
Extraction speed 1.9 X
Track quality 99.9 %
Copy CRC 5FCC88A5
Track not present in AccurateRip database
Copy OK

Track 9

Filename C:\My Rips\Muddy Waters - Trouble No More Singles\09 - Close to You.wav

Peak level 98.8 %
Extraction speed 2.0 X
Track quality 99.9 %
Copy CRC 78454415
Track not present in AccurateRip database
Copy OK

Track 10

Filename C:\My Rips\Muddy Waters - Trouble No More Singles\10 - Mean Mistreater.wav

Pre-gap length 0:00:01.25

Peak level 98.8 %
Extraction speed 2.0 X
Track quality 99.9 %
Copy CRC 94A1D5C2
Track not present in AccurateRip database
Copy OK

Track 11

Filename C:\My Rips\Muddy Waters - Trouble No More Singles\11 - Take the Bitter With the Sweet.wav

Pre-gap length 0:00:01.23

Peak level 97.3 %
Extraction speed 2.1 X
Track quality 99.9 %
Copy CRC AA2B0197
Track not present in AccurateRip database
Copy OK

Track 12

Filename C:\My Rips\Muddy Waters - Trouble No More Singles\12 - She's into Something.wav

Pre-gap length 0:00:01.15

Peak level 98.8 %
Extraction speed 2.8 X
Track quality 100.0 %
Copy CRC BB964D1A
Track not present in AccurateRip database
Copy OK

Track 13

Filename C:\My Rips\Muddy Waters - Trouble No More Singles\13 - Diamonds at Your Feet.wav

Pre-gap length 0:00:02.48

Peak level 98.8 %
Extraction speed 2.8 X
Track quality 100.0 %
Copy CRC D7D9C9E3
Track not present in AccurateRip database
Copy OK

Track 14

Filename C:\My Rips\Muddy Waters - Trouble No More Singles\14 - Look What You've Done.wav

Pre-gap length 0:00:02.15

Peak level 98.8 %
Extraction speed 2.9 X
Track quality 100.0 %
Copy CRC AA71248F
Track not present in AccurateRip database
Copy OK


None of the tracks are present in the AccurateRip database

No errors occurred

End of status report



[CUETools log; Date: 2017. 03. 20. 10:00:00; Version: 2.1.6]
[CTDB TOCID: dBXzyKfx.JiB9t5ZGu6C3Gukw5E-] found.
Track | CTDB Status
1 | (3/3) Accurately ripped
2 | (3/3) Accurately ripped
3 | (3/3) Accurately ripped
4 | (3/3) Accurately ripped
5 | (3/3) Accurately ripped
6 | (3/3) Accurately ripped
7 | (3/3) Accurately ripped
8 | (3/3) Accurately ripped
9 | (3/3) Accurately ripped
10 | (3/3) Accurately ripped
11 | (3/3) Accurately ripped
12 | (3/3) Accurately ripped
13 | (3/3) Accurately ripped
14 | (3/3) Accurately ripped
[AccurateRip ID: 00147933-00db37d9-a6093d0e] found.
Track [ CRC | V2 ] Status
01 [68fc2230|efee8488] (0+0/2) No match
02 [c1459a67|d129c811] (0+0/2) No match
03 [f7395fa4|b8df9592] (0+0/2) No match
04 [6a1f43d3|863e9cbd] (0+0/2) No match
05 [c45d14ad|00e0a8cd] (0+0/2) No match
06 [4732e197|279aaeb0] (0+0/2) No match
07 [e8263aac|f7218e45] (0+0/2) No match
08 [1f8241b0|18ddacff] (0+0/2) No match
09 [dfa78461|90756bdd] (0+0/2) No match
10 [d78d94fb|e618af32] (0+0/2) No match
11 [2c3ef745|5157d7d2] (0+0/2) No match
12 [0d91ae66|f9fdf22a] (0+0/2) No match
13 [d1b87e93|285f2843] (0+0/2) No match
14 [71a5c606|22577de0] (0+0/2) No match
Offsetted by -18:
01 [d4c08e42] (0/2) No match (V2 was not tested)
02 [6a8e49cf] (0/2) No match (V2 was not tested)
03 [280914e4] (0/2) No match (V2 was not tested)
04 [1df9f96f] (0/2) No match (V2 was not tested)
05 [f75827a3] (0/2) No match (V2 was not tested)
06 [3a13b33d] (0/2) No match (V2 was not tested)
07 [21451732] (0/2) No match (V2 was not tested)
08 [8eb4fc8c] (0/2) No match (V2 was not tested)
09 [ce7dd20f] (0/2) No match (V2 was not tested)
10 [86628965] (0/2) No match (V2 was not tested)
11 [6b5e8caf] (0/2) No match (V2 was not tested)
12 [3ba5d510] (0/2) No match (V2 was not tested)
13 [7630cebf] (0/2) No match (V2 was not tested)
14 [0eb21c10] (0/2) No match (V2 was not tested)

Track Peak [ CRC32 ] [W/O NULL] [ LOG ]
– 99,9 [C364BEF0] [529957B4]
01 98,8 [D57CCA62] [92D82406] W/O NULL
02 97,5 [3F73AC52] [2BB92AA0] W/O NULL
03 99,9 [F5B6C248] [715F0B05] W/O NULL
04 99,5 [E3C2E27B] [836273C1] W/O NULL
05 98,8 [022F97CA] [D1628A57] W/O NULL
06 98,8 [A69BA6DF] [60CF6FF6] W/O NULL
07 97,3 [1822A1FC] [AA144EA4] W/O NULL
08 94,9 [955E96D3] [5FCC88A5] W/O NULL
09 98,8 [B2C46AF0] [78454415] W/O NULL
10 98,8 [69C7ECC1] [94A1D5C2] W/O NULL
11 97,3 [0F4B2CB0] [AA2B0197] W/O NULL
12 98,8 [641207D8] [BB964D1A] W/O NULL
13 98,8 [23EA1A02] [D7D9C9E3] W/O NULL
14 98,8 [FA38BD91] [AA71248F] W/O NULL


Thx to Honeybear53