Subcategories

Muhal Richard Abrams - Song for All (1997)

Posted By: basa005
Muhal Richard Abrams - Song for All (1997)

Muhal Richard Abrams - Family Talk (1993)
EAC RIP | APE + CUE + LOG | COVER + BOOK | RAR FILES (3% recovery) | 389 Mb
Jazz | Black Saint 120161-2

Muhal Richard Abrams - Song for All (1997)

Tacklist:
1. "Song for All" - 6:37
2. "Dabadubada" - 8:54
3. "Marching With Honor" - 7:35
4. "GMBR" - 13:49
5. "Over the Same Over" - 19:59
6. "Linetime" - 9:10
7. "Steamin' up the Road" - 7:14
8. "Imagine" - 4:02

All compositions by Muhal Richard Abrams
Recorded on April 26–29, 1994 at East Side Sound, NYC

Muhal Richard Abrams: piano, synthesizer
Eddie Allen: trumpet
Aaron Stewart: tenor saxophone, soprano saxophone
Craig Harris: trombone
Bryan Carrott: vibraphone, percussion
Brad Jones: bass
Reggie Nicholson: drums
Richarda Abrams: voice

Song for All is an album by Muhal Richard Abrams which was released on the Italian Black Saint label in 1997 and features performances of eight of Abrams' compositions by Abrams, Eddie Allen, Craig Harris, Eugene Ghee, Alfred Patterson, Brad Jones, and Reggie Nicholson. The Allmusic review by Scott Yanow calls the album "music that ranges from advanced hard bop (some of the grooves are quite straight-ahead) to some rather spacy explorations… complex yet often surprisingly accessible music… Well worth several listens".


Exact Audio Copy V0.99 prebeta 4 from 23. January 2008

EAC extraction logfile from 26. January 2011, 14:51

Muhal Richard Abrams / Song For All

Used drive : ATAPI DVD A DH16A1L Adapter: 1 ID: 0

Read mode : Secure
Utilize accurate stream : Yes
Defeat audio cache : Yes
Make use of C2 pointers : No

Read offset correction : 6
Overread into Lead-In and Lead-Out : No
Fill up missing offset samples with silence : Yes
Delete leading and trailing silent blocks : No
Null samples used in CRC calculations : Yes
Used interface : Native Win32 interface for Win NT & 2000

Used output format : Internal WAV Routines
Sample format : 44.100 Hz; 16 Bit; Stereo


TOC of the extracted CD

Track | Start | Length | Start sector | End sector
––––––––––––––––––––––––––––-
1 | 0:00.00 | 6:37.40 | 0 | 29814
2 | 6:37.40 | 8:54.47 | 29815 | 69911
3 | 15:32.12 | 7:35.28 | 69912 | 104064
4 | 23:07.40 | 13:49.07 | 104065 | 166246
5 | 36:56.47 | 19:59.20 | 166247 | 256191
6 | 56:55.67 | 9:10.05 | 256192 | 297446
7 | 66:05.72 | 7:14.25 | 297447 | 330021
8 | 73:20.22 | 4:02.60 | 330022 | 348231


Range status and errors

Selected range

Filename C:\avaxhome\Muhal Richard Abrams - Song For All.wav

Peak level 100.0 %
Range quality 100.0 %
Copy CRC C53433ED
Copy OK

No errors occurred


AccurateRip summary

Track 1 accurately ripped (confidence 3) [0F1E49AE]
Track 2 accurately ripped (confidence 3) [42D4AAA8]
Track 3 accurately ripped (confidence 3) [6965B4A4]
Track 4 accurately ripped (confidence 3) [B99A6306]
Track 5 accurately ripped (confidence 2) [83D90199]
Track 6 accurately ripped (confidence 3) [5896900B]
Track 7 accurately ripped (confidence 3) [1698E9FC]
Track 8 accurately ripped (confidence 3) [654B16D2]

All tracks accurately ripped

End of status report

FS download:
cover