Subcategories

Murray Perahia - Beethoven: Piano sonatas (2018)

Posted By: tirexiss
Murray Perahia - Beethoven: Piano sonatas (2018)

Murray Perahia - Beethoven: Piano sonatas (2018)
EAC | FLAC (tracks+.cue, log) | Covers Included | 55:52 | 183 MB
Genre: Classical | Label: Deutsche Grammophon | Catalog: 4798353

Living legend of the piano Murray Perahia records two benchmark sonatas by Beethoven for the first time in his career.
Long renowned for his performances of this composer, Perahia’s brand new recording pairs together two of the most radically ground-breaking of Beethoven’s 32 piano sonatas, in a release that is sure to be a crown jewel of the Beethoven discography.
Murray Perahia stands in the tradition of the great keyboard virtuosi as an artist armed with consummate technical skills, boundless imagination and near-mystical eloquence.
Murray Perahia explored the “Hammerklavier” Sonata first when he was in his mid-twenties. While the work’s enormous technical and physical challenges fell within his grasp, its profound musical demands eluded him. He quietly dropped the “Hammerklavier” from his repertoire, recognising that he would need time to fathom its cosmic depths. Over four decades passed before he felt ready to programme the piece in recital.
After years of studying the original manuscripts, working sketches and editions published during the composer’s lifetime, and having edited the new Henle Urtext edition of The Complete Beethoven Piano Sonatas, Perahia now presents two of Beethoven’s most famous sonatas as a revelation.
“The challenge of this music is still alive because one can get deeper and deeper into the piece’s mysteries. That’s endless – both musicologically and emotionally. Everything in it is connected. There isn’t a random note, yet it feels improvisatory. So it’s a mystery that will intrigue and occupy musicians forever.” – Murray Perahia

Murray Perahia - Beethoven: Piano sonatas (2018)

Track List:

Piano Sonata No. 29 in B flat major "HammerKlavier", op. 106
01 Allegro
02 Scherzo. Assai vivace
03 Adagio sostenuto
04 Largo - allegro risoluto

Piano Sonata No. 14 in C sharp minor, "Moonlight", op. 27/2
05 Adagio sostenuto
06 Allegretto
07 Presto agitato

Performers:
Murray Perahia, piano

Exact Audio Copy V1.3 from 2. September 2016

EAC extraction logfile from 14. February 2018, 19:31

Murray Perahia / Beethoven Piano sonatas

Used drive : HL-DT-STBD-RE WH14NS40 Adapter: 1 ID: 0

Read mode : Secure
Utilize accurate stream : Yes
Defeat audio cache : Yes
Make use of C2 pointers : No

Read offset correction : 6
Overread into Lead-In and Lead-Out : No
Fill up missing offset samples with silence : Yes
Delete leading and trailing silent blocks : No
Null samples used in CRC calculations : Yes
Used interface : Native Win32 interface for Win NT & 2000
Gap handling : Not detected, thus appended to previous track

Used output format : User Defined Encoder
Selected bitrate : 768 kBit/s
Quality : High
Add ID3 tag : No
Command line compressor : D:\Program Files (x86)\Exact Audio Copy\FLAC\FLAC.EXE
Additional command line options : -6 -V -T "ARTIST=%artist%" -T "TITLE=%title%" -T "ALBUM=%albumtitle%" -T "DATE=%year%" -T "TRACKNUMBER=%tracknr%" -T "GENRE=%genre%" -T "COMMENT=%comment%" -T "BAND=%albuminterpret%" -T "ALBUMARTIST=%albuminterpret%" -T "COMPOSER=%composer%" %haslyrics%–tag-from-file=LYRICS="%lyricsfile%"%haslyrics% -T "DISCNUMBER=%cdnumber%" -T "TOTALDISCS=%totalcds%" -T "TOTALTRACKS=%numtracks%" %hascover%–picture="%coverfile%"%hascover% %source% -o %dest%


TOC of the extracted CD

Track | Start | Length | Start sector | End sector
––––––––––––––––––––––––––––-
1 | 0:00.00 | 10:09.34 | 0 | 45708
2 | 10:09.34 | 2:28.37 | 45709 | 56845
3 | 12:37.71 | 16:21.23 | 56846 | 130443
4 | 28:59.19 | 11:49.11 | 130444 | 183629
5 | 40:48.30 | 5:16.33 | 183630 | 207362
6 | 46:04.63 | 2:10.38 | 207363 | 217150
7 | 48:15.26 | 7:25.12 | 217151 | 250537


Track 1

Filename Perahia Beethoven 2018\01 Allegro.wav

Peak level 92.6 %
Extraction speed 3.3 X
Track quality 100.0 %
Copy CRC 9E4F9A20
Copy OK

Track 2

Filename Perahia Beethoven 2018\02 Scherzo. Assai vivace.wav

Peak level 68.0 %
Extraction speed 3.6 X
Track quality 100.0 %
Copy CRC 1006A9B1
Copy OK

Track 3

Filename Perahia Beethoven 2018\03 Adagio sostenuto.wav

Peak level 54.7 %
Extraction speed 4.0 X
Track quality 100.0 %
Copy CRC 06497A89
Copy OK

Track 4

Filename Perahia Beethoven 2018\04 Largo - allegro risoluto.wav

Peak level 88.2 %
Extraction speed 3.3 X
Track quality 99.9 %
Copy CRC 32B758D5
Copy OK

Track 5

Filename Perahia Beethoven 2018\05 Adagio sostenuto.wav

Peak level 21.6 %
Extraction speed 2.0 X
Track quality 100.0 %
Copy CRC 79E013D7
Copy OK

Track 6

Filename Perahia Beethoven 2018\06 allegretto.wav

Peak level 36.9 %
Extraction speed 1.8 X
Track quality 100.0 %
Copy CRC 417AFF10
Copy OK

Track 7

Filename Perahia Beethoven 2018\07 Presto agitato.wav

Peak level 85.2 %
Extraction speed 2.2 X
Track quality 100.0 %
Copy CRC 6515D1F2
Copy OK

No errors occurred

End of status report

–– CUETools DB Plugin V2.1.6

[CTDB TOCID: A4Gz984XrLQdF0tiyUMzexmJW2M-] found
Submit result: A4Gz984XrLQdF0tiyUMzexmJW2M- has been confirmed
Track | CTDB Status
1 | (9/9) Accurately ripped
2 | (9/9) Accurately ripped
3 | (9/9) Accurately ripped
4 | (9/9) Accurately ripped
5 | (9/9) Accurately ripped
6 | (9/9) Accurately ripped
7 | (9/9) Accurately ripped


––––––––––––––––––––––––––––––

Exact Audio Copy V1.3 from 2. September 2016

EAC extraction logfile from 14. February 2018, 19:32

Murray Perahia / Beethoven Piano sonatas

Used drive : HL-DT-STBD-RE WH14NS40 Adapter: 1 ID: 0

Read mode : Secure
Utilize accurate stream : Yes
Defeat audio cache : Yes
Make use of C2 pointers : No

Read offset correction : 6
Overread into Lead-In and Lead-Out : No
Fill up missing offset samples with silence : Yes
Delete leading and trailing silent blocks : No
Null samples used in CRC calculations : Yes
Used interface : Native Win32 interface for Win NT & 2000
Gap handling : Not detected, thus appended to previous track

Used output format : User Defined Encoder
Selected bitrate : 768 kBit/s
Quality : High
Add ID3 tag : No
Command line compressor : Exact Audio Copy\FLAC\FLAC.EXE
Additional command line options : -6 -V -T "ARTIST=%artist%" -T "TITLE=%title%" -T "ALBUM=%albumtitle%" -T "DATE=%year%" -T "TRACKNUMBER=%tracknr%" -T "GENRE=%genre%" -T "COMMENT=%comment%" -T "BAND=%albuminterpret%" -T "ALBUMARTIST=%albuminterpret%" -T "COMPOSER=%composer%" %haslyrics%–tag-from-file=LYRICS="%lyricsfile%"%haslyrics% -T "DISCNUMBER=%cdnumber%" -T "TOTALDISCS=%totalcds%" -T "TOTALTRACKS=%numtracks%" %hascover%–picture="%coverfile%"%hascover% %source% -o %dest%


TOC of the extracted CD

Track | Start | Length | Start sector | End sector
––––––––––––––––––––––––––––-
1 | 0:00.00 | 10:09.34 | 0 | 45708
2 | 10:09.34 | 2:28.37 | 45709 | 56845
3 | 12:37.71 | 16:21.23 | 56846 | 130443
4 | 28:59.19 | 11:49.11 | 130444 | 183629
5 | 40:48.30 | 5:16.33 | 183630 | 207362
6 | 46:04.63 | 2:10.38 | 207363 | 217150
7 | 48:15.26 | 7:25.12 | 217151 | 250537


Track 1

Filename Perahia Beethoven 2018\01 Allegro.wav

Peak level 92.6 %
Extraction speed 3.3 X
Track quality 100.0 %
Copy CRC 9E4F9A20
Copy OK

Track 2

Filename Perahia Beethoven 2018\02 Scherzo. Assai vivace.wav

Peak level 68.0 %
Extraction speed 3.6 X
Track quality 100.0 %
Copy CRC 1006A9B1
Copy OK

Track 3

Filename Perahia Beethoven 2018\03 Adagio sostenuto.wav

Peak level 54.7 %
Extraction speed 4.0 X
Track quality 100.0 %
Copy CRC 06497A89
Copy OK

Track 4

Filename Perahia Beethoven 2018\04 Largo - allegro risoluto.wav

Peak level 88.2 %
Extraction speed 3.3 X
Track quality 99.9 %
Copy CRC 32B758D5
Copy OK

Track 5

Filename Perahia Beethoven 2018\05 Adagio sostenuto.wav

Peak level 21.6 %
Extraction speed 2.0 X
Track quality 100.0 %
Copy CRC 79E013D7
Copy OK

Track 6

Filename Perahia Beethoven 2018\06 allegretto.wav

Peak level 36.9 %
Extraction speed 1.8 X
Track quality 100.0 %
Copy CRC 417AFF10
Copy OK

Track 7

Filename Perahia Beethoven 2018\07 Presto agitato.wav

Peak level 85.2 %
Extraction speed 2.2 X
Track quality 100.0 %
Copy CRC 6515D1F2
Copy OK

No errors occurred

End of status report

–– CUETools DB Plugin V2.1.6

[CTDB TOCID: A4Gz984XrLQdF0tiyUMzexmJW2M-] found
Submit result: A4Gz984XrLQdF0tiyUMzexmJW2M- has been confirmed
Track | CTDB Status
1 | (9/9) Accurately ripped
2 | (9/9) Accurately ripped
3 | (9/9) Accurately ripped
4 | (9/9) Accurately ripped
5 | (9/9) Accurately ripped
6 | (9/9) Accurately ripped
7 | (9/9) Accurately ripped

[CUETools log; Date: 15.02.2018 12:42:28; Version: 2.1.5]
[CTDB TOCID: A4Gz984XrLQdF0tiyUMzexmJW2M-] found.
Track | CTDB Status
1 | (10/10) Accurately ripped
2 | (10/10) Accurately ripped
3 | (10/10) Accurately ripped
4 | (10/10) Accurately ripped
5 | (10/10) Accurately ripped
6 | (10/10) Accurately ripped
7 | (10/10) Accurately ripped
[AccurateRip ID: 0010a861-0062bb16-660d0c07] disk not present in database.

Track Peak [ CRC32 ] [W/O NULL] [ LOG ]
– 92,6 [493B278A] [DCB1E3A7]
01 92,6 [9E4F9A20] [7C496EE6] CRC32
02 68,0 [1006A9B1] [3E01EDF9] CRC32
03 54,7 [06497A89] [BC561ECE] CRC32
04 88,2 [32B758D5] [631A0AB7] CRC32
05 21,6 [79E013D7] [2DAE2D2C] CRC32
06 36,9 [417AFF10] [CC55CECB] CRC32
07 85,2 [6515D1F2] [F7E7C8AE] CRC32

Thanks to the Original ripper 123doctor!

Download: