Subcategories

Musica Alta Ripa - Leclair: Trio Sonatas Op.4 (1993) (Repost)

Posted By: tirexiss
Musica Alta Ripa - Leclair: Trio Sonatas Op.4 (1993) (Repost)

Musica Alta Ripa - Leclair: Trio Sonatas Op.4 (1993)
EAC | WavPack (image+.cue, log) | Covers Included | 01:10:20 | 418 MB
Genre: Classical | Label: MDG Gold | Catalog: 309 0428-2

Remastered from the original LP recording, this performance is now available on CD.
Leclair was one of the best violinists of his times. The story is told that he had to compete in a musical duel with Locatelli in Kassel - then a most highly popular form of musical entertainment. The chronicler describes his "devilish" playing, contrasting it with the "angelic" style of his Italian rival. His trio sonatas suggest familiarity with the Italian school but also draw on entirely independent French traditions and shine with ingenious inventions and harmonic refinements.
Musica Alta Ripa has worked with MDG for many years, successfully establishing itself as one of the most sought-after early music ensembles. The ensemble's recordings have earned many international awards, and the vibrant joy of these performances is a source of pure listening fun.

Musica Alta Ripa - Leclair: Trio Sonatas Op.4 (1993) (Repost)

Track List:

Sonate I (D minor, en re mineur, d-Moll)
1. I Adagio (2:42)
2. II Allegro ma non troppo (2:22)
3. III Largo (2:12)
4. IV Allegro (2:09)
Sonate II (B flat major, en si bemol majeur, B-Dur)
5. I Adagio (2:47)
6. II Allegro ma non troppo (2:11)
7. III Largo - cantabile (3:18)
8. IV Allegro assai (1:59)
Sonate III (D minor, en re mineur, d-Moll)
9. I Adagio (2:13)
10. II Allegro (1:46)
11. III Aria - Allegro ma poco (3:58)
12. IV Sarabanda - largo (2:57)
13. V Allegro (3:55)
Sonate IV (F major, en fa majeur, F-Dur)
14. I Largo (2:12)
15. II Allegro (3:15)
16. III Aria - Adagio ma non troppo (3:10)
17. IV Presto (1:41)
Sonate V (G minor, en sol mineur, g-moll)
18. I Andante (3:04)
19. II Allegro ma non troppo (2:38)
20. III Aria - Grazioso (5:45)
21. IV Giga - Allegro ma non troppo (3:18)
Sonate VI (A major, en la majeur, A-Dur)
22. I Adagio (1:51)
23. II Allegro ma non troppo (2:22)
24. III Gavotta - Gratioso, un poco Andante (4:04)
25. IV Vivace (2:21)

Performers:
Musica Alta Ripa

Exact Audio Copy V1.0 beta 2 from 29. April 2011

EAC extraction logfile from 20. May 2012, 20:36

Musica Alta Ripa / Jean-Marie Leclair - Triosonaten Op. 4

Used drive : HL-DT-STDVDRAM GH20NS10 Adapter: 4 ID: 0

Read mode : Secure
Utilize accurate stream : Yes
Defeat audio cache : Yes
Make use of C2 pointers : No

Read offset correction : 667
Overread into Lead-In and Lead-Out : No
Fill up missing offset samples with silence : Yes
Delete leading and trailing silent blocks : No
Null samples used in CRC calculations : Yes
Used interface : Installed external ASPI interface

Used output format : Internal WAV Routines
Sample format : 44.100 Hz; 16 Bit; Stereo


TOC of the extracted CD

Track | Start | Length | Start sector | End sector
––––––––––––––––––––––––––––-
1 | 0:00.00 | 2:42.17 | 0 | 12166
2 | 2:42.17 | 2:22.20 | 12167 | 22836
3 | 5:04.37 | 2:12.43 | 22837 | 32779
4 | 7:17.05 | 2:09.00 | 32780 | 42454
5 | 9:26.05 | 2:47.22 | 42455 | 55001
6 | 12:13.27 | 2:11.55 | 55002 | 64881
7 | 14:25.07 | 3:18.53 | 64882 | 79784
8 | 17:43.60 | 1:59.67 | 79785 | 88776
9 | 19:43.52 | 2:13.65 | 88777 | 98816
10 | 21:57.42 | 1:46.45 | 98817 | 106811
11 | 23:44.12 | 3:58.13 | 106812 | 124674
12 | 27:42.25 | 2:57.30 | 124675 | 137979
13 | 30:39.55 | 3:55.02 | 137980 | 155606
14 | 34:34.57 | 2:12.00 | 155607 | 165506
15 | 36:46.57 | 3:15.23 | 165507 | 180154
16 | 40:02.05 | 3:10.67 | 180155 | 194471
17 | 43:12.72 | 1:41.60 | 194472 | 202106
18 | 44:54.57 | 3:04.23 | 202107 | 215929
19 | 47:59.05 | 2:38.67 | 215930 | 227846
20 | 50:37.72 | 5:44.73 | 227847 | 253719
21 | 56:22.70 | 3:18.40 | 253720 | 268609
22 | 59:41.35 | 1:51.55 | 268610 | 276989
23 | 61:33.15 | 2:21.72 | 276990 | 287636
24 | 63:55.12 | 4:04.25 | 287637 | 305961
25 | 67:59.37 | 2:21.13 | 305962 | 316549


Range status and errors

Selected range

Filename Z:\NetLab\Jean-Marie Leclair - Triosonaten Op. 4 (Musica Alta Ripa) (1993) {mDG 309 0428-2}\Jean-Marie Leclair - Triosonaten Op. 4.wav

Peak level 86.7 %
Extraction speed 6.7 X
Range quality 100.0 %
Test CRC 50AA7F2C
Copy CRC 50AA7F2C
Copy OK

No errors occurred


AccurateRip summary

Track 1 not present in database
Track 2 not present in database
Track 3 not present in database
Track 4 not present in database
Track 5 not present in database
Track 6 not present in database
Track 7 not present in database
Track 8 not present in database
Track 9 not present in database
Track 10 not present in database
Track 11 not present in database
Track 12 not present in database
Track 13 not present in database
Track 14 not present in database
Track 15 not present in database
Track 16 not present in database
Track 17 not present in database
Track 18 not present in database
Track 19 not present in database
Track 20 not present in database
Track 21 not present in database
Track 22 not present in database
Track 23 not present in database
Track 24 not present in database
Track 25 not present in database

None of the tracks are present in the AccurateRip database

End of status report

==== Log checksum 5D29589A2FB7B8D62656C0C6068A039692B113DFDC69089A9B7377913AD2C5ED ====

[CUETools log; Date: 12.03.2018 17:29:29; Version: 2.1.5]
[CTDB TOCID: C2ZpG3_G5uQ93fy6YKJHrTWA7AI-] found.
Track | CTDB Status
1 | (4/4) Accurately ripped
2 | (4/4) Accurately ripped
3 | (4/4) Accurately ripped
4 | (4/4) Accurately ripped
5 | (4/4) Accurately ripped
6 | (4/4) Accurately ripped
7 | (4/4) Accurately ripped
8 | (4/4) Accurately ripped
9 | (4/4) Accurately ripped
10 | (4/4) Accurately ripped
11 | (4/4) Accurately ripped
12 | (4/4) Accurately ripped
13 | (4/4) Accurately ripped
14 | (4/4) Accurately ripped
15 | (4/4) Accurately ripped
16 | (4/4) Accurately ripped
17 | (4/4) Accurately ripped
18 | (4/4) Accurately ripped
19 | (4/4) Accurately ripped
20 | (4/4) Accurately ripped
21 | (4/4) Accurately ripped
22 | (4/4) Accurately ripped
23 | (4/4) Accurately ripped
24 | (4/4) Accurately ripped
25 | (4/4) Accurately ripped
[AccurateRip ID: 003bc8ef-044545dd-83107c19] found.
Track [ CRC | V2 ] Status
01 [41586c9b|4a2c8ae7] (0+4/4) Accurately ripped
02 [e2e95088|9bbdd838] (0+4/4) Accurately ripped
03 [46b24928|50ac7525] (0+4/4) Accurately ripped
04 [f8100a7e|2a82fb33] (0+4/4) Accurately ripped
05 [2b6e30f8|85eb8614] (0+4/4) Accurately ripped
06 [9d7b6468|f32100e7] (0+4/4) Accurately ripped
07 [7096a128|7139ee2a] (0+4/4) Accurately ripped
08 [85a6909b|c59930d5] (0+4/4) Accurately ripped
09 [743e42db|a7667c39] (0+4/4) Accurately ripped
10 [658cc79c|0b755e9a] (0+4/4) Accurately ripped
11 [052a4f9d|5f273074] (0+4/4) Accurately ripped
12 [d3958ad1|5c6d6648] (0+4/4) Accurately ripped
13 [33514152|6a636a5f] (0+4/4) Accurately ripped
14 [20656cd4|c80252b4] (0+4/4) Accurately ripped
15 [29e74a19|c35065c1] (0+4/4) Accurately ripped
16 [6c3a7b95|8885bd34] (0+4/4) Accurately ripped
17 [0e756efd|bfbf7a5d] (0+4/4) Accurately ripped
18 [1e7f22f7|55e0ca7e] (0+4/4) Accurately ripped
19 [cf7a2e66|4bce3063] (0+4/4) Accurately ripped
20 [24c77e69|f23610cc] (0+4/4) Accurately ripped
21 [eeed1840|3c3de04d] (0+4/4) Accurately ripped
22 [d5de8171|821a72f6] (0+4/4) Accurately ripped
23 [79324572|f5f697e7] (0+4/4) Accurately ripped
24 [195322c4|4908ed17] (0+4/4) Accurately ripped
25 [5ab46078|7c06c063] (0+4/4) Accurately ripped

Track Peak [ CRC32 ] [W/O NULL] [ LOG ]
– 86,7 [50AA7F2C] [9487D099] CRC32
01 70,1 [E7AAFFC2] [EB5A4A60]
02 66,5 [0A717939] [5EC303D6]
03 72,3 [7C905C7E] [DF39C68D]
04 86,7 [8E67414F] [9AAF19A9]
05 64,5 [E331C3C0] [53674A73]
06 53,4 [138ADB99] [53980B91]
07 56,8 [C3B52151] [D27F1F2B]
08 67,7 [98038BC3] [D6D4079F]
09 60,8 [277FCC68] [69B0E55C]
10 66,0 [876FCDB8] [23052F7F]
11 77,0 [683BEDD7] [1B0ADA09]
12 58,7 [9F9B9E4F] [3859E50C]
13 78,7 [17BFD456] [80CB142C]
14 51,6 [6EAE1E0C] [5151BA45]
15 76,3 [094101FB] [004E840B]
16 58,7 [6A3B3A1C] [A7428AC2]
17 56,7 [1705E746] [D574CC69]
18 74,9 [24A69DFC] [7838DA8D]
19 67,7 [D0330D5E] [80F82348]
20 70,7 [A7A3E011] [0A3B172A]
21 70,3 [42DB4B84] [9CA9BB82]
22 60,9 [8123EB18] [74BE9127]
23 78,4 [5B7A6DB6] [9555F42D]
24 73,0 [610CF8A5] [B59A30E3]
25 67,9 [ACB244A2] [BF26DBD3]

Thanks to the Original ripper (unknown)!

Download: