Musica Fiata, La Capella Ducale, Roland Wilson - Johann Joseph Fux: Kaiserrequiem (2012)

Posted By: tirexiss
Musica Fiata, La Capella Ducale, Roland Wilson - Johann Joseph Fux: Kaiserrequiem (2012)

Musica Fiata, La Capella Ducale, Roland Wilson - Johann Joseph Fux: Kaiserrequiem (2012)
EAC | FLAC (image+.cue, log) | Covers Included | 72:33 | 335 MB
Genre: Classical, Choral | Label: Deutsche Harmonia Mundi | Catalog: 88697959972

Das Alte-Musik-Ensemble Musica Fiata mit dem Vokal-Ensemble La Capella Ducale unter der Leitung von Roland Wilson ist bekannt für die historische Genauigkeit seiner Interpretationen. Für viele seiner herausragenden CDs mit unbekanntem Repertoire hat das Ensemble Preise gewonnen und ein hohes internationales Ansehen erlangt.
Auch das Kaiserrequiem von Johann Joseph Fux ist eine Entdeckung und bisher nie in einer solchen Qualität eingespielt worden.
Der österreichische Komponist des Spätbarrock war Hofkapellmeister der Habsburger und gehörte zu den besten Komponisten seiner Zeit. Das sogenannte "Kaiserrequiem", das Fux anlässlich der Trauerfeierlichkeiten für die Kaiserwitwe Eleonora im Jahr 1720 schrieb, gehört zu den wichtigsten Werken des Komponisten und wurde bereits zu Fux' Lebzeiten zu vielen weiteren Anlässen aufgeführt. Mit der Einspielung dieses bewegenden Werkes schafft die Musica Fiata zweifelsohne eine Referenz-Aufnahme, mit der sie ihrem ausgezeichneten Ruf gerecht wird.

Musica Fiata, La Capella Ducale, Roland Wilson - Johann Joseph Fux: Kaiserrequiem (2012)

Track List:

Johann Joseph Fux (1660-1741)

[1]-[11] Kaiserrequiem

Performers:
Musica Fiata
La Capella Ducale
Roland Wilson

Exact Audio Copy V1.1 from 23. June 2015

EAC extraction logfile from 28. February 2016, 18:59

Musica Fiata, La Capella Ducale, Roland Wilson / Fux - Kaiserrequiem

Used drive : HL-DT-STDVDRAM GU70N Adapter: 1 ID: 0

Read mode : Secure
Utilize accurate stream : Yes
Defeat audio cache : Yes
Make use of C2 pointers : No

Read offset correction : 48
Overread into Lead-In and Lead-Out : No
Fill up missing offset samples with silence : Yes
Delete leading and trailing silent blocks : No
Null samples used in CRC calculations : Yes
Used interface : Native Win32 interface for Win NT & 2000

Used output format : User Defined Encoder
Selected bitrate : 128 kBit/s
Quality : High
Add ID3 tag : No
Command line compressor : C:\Program Files (x86)\Exact Audio Copy\Flac\flac.exe
Additional command line options : -V -8 -T "Date=%year%" -T "Genre=%genre%" %source%


TOC of the extracted CD

Track | Start | Length | Start sector | End sector
––––––––––––––––––––––––––––-
1 | 0:00.00 | 5:12.46 | 0 | 23445
2 | 5:12.46 | 2:34.14 | 23446 | 35009
3 | 7:46.60 | 12:46.51 | 35010 | 92510
4 | 20:33.36 | 7:01.31 | 92511 | 124116
5 | 27:34.67 | 5:03.07 | 124117 | 146848
6 | 32:37.74 | 24:32.53 | 146849 | 257301
7 | 57:10.52 | 2:49.54 | 257302 | 270030
8 | 60:00.31 | 3:19.69 | 270031 | 285024
9 | 63:20.25 | 1:31.69 | 285025 | 291918
10 | 64:52.19 | 2:56.11 | 291919 | 305129
11 | 67:48.30 | 4:43.05 | 305130 | 326359


Range status and errors

Selected range

Filename C:\temp\DHM88697 95997 - Fux - Kaiserrequiem\Fux - Kaiserrequiem.wav

Peak level 87.5 %
Extraction speed 2.2 X
Range quality 100.0 %
Test CRC E8965A35
Copy CRC E8965A35
Copy OK

No errors occurred


AccurateRip summary

Track 1 accurately ripped (confidence 3) [171DDE27] (AR v2)
Track 2 accurately ripped (confidence 3) [AF00D250] (AR v2)
Track 3 accurately ripped (confidence 3) [8D4C6BDD] (AR v2)
Track 4 accurately ripped (confidence 3) [368176C1] (AR v2)
Track 5 accurately ripped (confidence 3) [D8EC5D23] (AR v2)
Track 6 accurately ripped (confidence 3) [119D5499] (AR v2)
Track 7 accurately ripped (confidence 3) [A6A9E71C] (AR v2)
Track 8 accurately ripped (confidence 3) [B8461285] (AR v2)
Track 9 accurately ripped (confidence 3) [9F0A4FCA] (AR v2)
Track 10 accurately ripped (confidence 3) [14A6C4BC] (AR v2)
Track 11 accurately ripped (confidence 3) [80E8D3E1] (AR v2)

All tracks accurately ripped

End of status report

==== Log checksum DE5CA17D21250BC6EF021AF37806D3F36C27799E8CCAD354F79469095A61A395 ====

[CUETools log; Date: 08.07.2017 18:31:09; Version: 2.1.5]
[CTDB TOCID: 8XpL6XqRalMdyvlXR1NcehxBkG0-] found.
Track | CTDB Status
1 | (12/12) Accurately ripped
2 | (12/12) Accurately ripped
3 | (12/12) Accurately ripped
4 | (12/12) Accurately ripped
5 | (12/12) Accurately ripped
6 | (12/12) Accurately ripped
7 | (12/12) Accurately ripped
8 | (12/12) Accurately ripped
9 | (12/12) Accurately ripped
10 | (12/12) Accurately ripped
11 | (12/12) Accurately ripped
[AccurateRip ID: 0020ec84-011dfb9d-9810ff0b] found.
Track [ CRC | V2 ] Status
01 [c7aaeb83|171dde27] (00+03/10) Accurately ripped
02 [c01327ca|af00d250] (00+03/10) Accurately ripped
03 [abacef0c|8d4c6bdd] (00+03/10) Accurately ripped
04 [ba9cd98f|368176c1] (00+03/10) Accurately ripped
05 [7a234489|d8ec5d23] (00+03/10) Accurately ripped
06 [4fb86e23|119d5499] (00+03/10) Accurately ripped
07 [1c3be6cd|a6a9e71c] (00+03/10) Accurately ripped
08 [4901cc30|b8461285] (00+03/10) Accurately ripped
09 [119d9491|9f0a4fca] (00+03/10) Accurately ripped
10 [202a7370|14a6c4bc] (00+03/10) Accurately ripped
11 [113cedaa|80e8d3e1] (00+03/09) Accurately ripped
Offsetted by -655:
01 [c17deac8] (00/10) No match (V2 was not tested)
02 [f2e203fc] (00/10) No match (V2 was not tested)
03 [3faf84b9] (00/10) No match (V2 was not tested)
04 [e7169bfe] (00/10) No match (V2 was not tested)
05 [1ecc091b] (00/10) No match (V2 was not tested)
06 [288953d0] (00/10) No match (V2 was not tested)
07 [a2955224] (00/10) No match (V2 was not tested)
08 [aa2f79d2] (00/10) No match (V2 was not tested)
09 [ea1b644b] (00/10) No match (V2 was not tested)
10 [872cc707] (00/10) No match (V2 was not tested)
11 [e567dd08] (00/09) No match (V2 was not tested)

Track Peak [ CRC32 ] [W/O NULL] [ LOG ]
– 87,5 [E8965A35] [D0E76ECA] CRC32
01 87,3 [09660766] [0ECAF2F4]
02 76,3 [07993EF8] [1BC85E11]
03 87,4 [1B763402] [3700ACD0]
04 34,6 [988DC808] [3AE44768]
05 74,9 [20654A8E] [1AE51BE3]
06 87,5 [56DEA5CD] [F33BECD5]
07 77,0 [25BF53EC] [3028B34E]
08 36,3 [544B8D16] [8ABFF0C8]
09 62,2 [06EFDE72] [0F4AC22C]
10 71,4 [56EDE999] [C7142F98]
11 56,2 [80CAAFD8] [88806E6A]

Thanks to the Original ripper A-Z!

Download: