Subcategories

Musica Nuda (Petra Magoni and Ferruccio Spinetti) - Complici (2011) [Re-Up]

Posted By: Designol
Musica Nuda (Petra Magoni and Ferruccio Spinetti) - Complici (2011) [Re-Up]

Musica Nuda (Petra Magoni and Ferruccio Spinetti) - Complici (2011)
EAC | FLAC | Tracks (Cue&Log) ~ 258 Mb | Mp3 (CBR320) ~ 105 Mb | Scans ~ 44 Mb
Vocal Jazz, Bass Jazz, Jazz-Pop | Label: BONSAÏ | # BON 110301 | Time: 00:46:14

Petra Magoni is considered to be one of most incredible voice as well for her interpreter's qualities today as on technical plan and Ferruccio Spinetti is surely one of the more brilliant bassist his generation and replacing a whole orchestra with its simple instrument. While the Musica Nuda's previous albums (Musica Nuda in 2004, Musica Nuda 2 in 2006, 55/21 in 2008) are primarly comprised of well-known standards, many of them in English (e.g., the Beatles' "Eleanor Rigby", "come together", "nature boy", "kiss" etc.), the new album complici is comprised of a majority of original and unreleased songs and been immediately Charte n°1 on top Jazz (physical & digital) in France & Italy. "Complici" in Italian means complicity, an amazing complicity that did not cease evolving; growing for soon 8 years and that constitutes the cement and the soul of their unique duo. "Complici" is a sober disc, a disc of songs, where sobriety and emotion take the place of the explosive energy of the previous opuses.

Comprised of vocalist Petra Magoni and bassist Ferruccio Spinetti, Musica Nuda are an Italian vocal jazz-pop duo whose popularity carried over to neighboring countries, especially France, during the mid-2000s. Born in Pisa, Tuscany, on July 28, 1972, Magoni studied music at the Conservatory of Leghorn and at the Pontifical Institute of Sacred Music in Milan. A versatile singer, she performed opera at the Teatro Verdi in Pisa early in her career while at the same time fronting a local rock group, Senza Freni. Petra Magoni (1996) marked her full-length solo album debut and was followed by a second solo album, Mulini a Vento (1997). She subsequently adopted the moniker Sweet Anima and released an eponymous album of English-language songs written by Lucio Battisti in 2000. In addition, she collaborated with Giampaolo Antoni in the electro-pop duo Aromatic, which resulted in the album Still Alive (2004). Most successful among her recording ventures, however, was Musica Nuda, a vocal jazz-pop collaboration with Piccola Orchestra Avion Travel bassist Ferruccio Spinetti that made its critically acclaimed eponymous album debut in 2004. Comprised primarily of well-known standards, many of them in English (e.g., the Beatles' "Eleanor Rigby"), the album was later licensed for reissue internationally by the Bonsaï Music label. While the duo's eponymous debut proved successful from a critical standpoint, the follow-up album, Musica Nuda 2 (2006), was internationally successful from a commercial standpoint as well, breaking into the French albums chart for seven weeks. Running two discs and 27 songs in length, Musica Nuda 2 features numerous guests. In the midst of their international breakthrough success, Magoni and Spinetti released a pair of live recordings: a video, Live in Paris (2006); and an album, Live à Fip (2007). A third studio album, 55/21 (2008), followed shortly thereafter.

– Jason Birchmeier, Allmusic.com

Musica Nuda (Petra Magoni and Ferruccio Spinetti) - Complici (2011) [Re-Up]

Musica Nuda (Petra Magoni and Ferruccio Spinetti) - Complici (2011) [Re-Up]



Tracklist:

01. Vado giu (03:22)
02. Una notte disperata (02:50)
03. Complici (02:46)
04. Lei colorera (04:15)
05. Sentieri strade saluti (02:53)
06. Mirza (02:39)
07. When I drink (02:58)
08. Rimando (02:58)
09. I giorni di festa (04:03)
10. Bach Aire (03:10)
11. Professionalita (03:33)
12. Mon amour (01:56)
13. Cinema (03:09)
14. Felicita (05:36)


Exact Audio Copy V1.0 beta 2 from 29. April 2011

EAC extraction logfile from 20. January 2012, 13:12

Musica Nuda / Complici

Used drive : PIONEER DVD-ROM DVD-305 Adapter: 0 ID: 1

Read mode : Secure
Utilize accurate stream : Yes
Defeat audio cache : Yes
Make use of C2 pointers : No

Read offset correction : 690
Overread into Lead-In and Lead-Out : No
Fill up missing offset samples with silence : Yes
Delete leading and trailing silent blocks : No
Null samples used in CRC calculations : Yes
Used interface : Installed external ASPI interface
Gap handling : Appended to previous track

Used output format : User Defined Encoder
Selected bitrate : 768 kBit/s
Quality : High
Add ID3 tag : No
Command line compressor : R:\Program Files\Flac\bin\flac.exe
Additional command line options : -8 -V -T "ARTIST=%artist%" -T "TITLE=%title%" -T "ALBUM=%albumtitle%" -T "DATE=%year%" -T "TRACKNUMBER=%tracknr%" -T "TOTALTRACKS=%numtracks%" -T "GENRE=%genre%" -T "ALBUMARTIST=%albumartist%" -T "ALBUM ARTIST=%albumartist%


TOC of the extracted CD

Track | Start | Length | Start sector | End sector
––––––––––––––––––––––––––––-
1 | 0:00.00 | 3:22.63 | 0 | 15212
2 | 3:22.63 | 2:50.24 | 15213 | 27986
3 | 6:13.12 | 2:46.22 | 27987 | 40458
4 | 8:59.34 | 4:15.52 | 40459 | 59635
5 | 13:15.11 | 2:53.46 | 59636 | 72656
6 | 16:08.57 | 2:39.70 | 72657 | 84651
7 | 18:48.52 | 2:58.54 | 84652 | 98055
8 | 21:47.31 | 2:58.10 | 98056 | 111415
9 | 24:45.41 | 4:03.47 | 111416 | 129687
10 | 28:49.13 | 3:10.04 | 129688 | 143941
11 | 31:59.17 | 3:33.34 | 143942 | 159950
12 | 35:32.51 | 1:56.61 | 159951 | 168711
13 | 37:29.37 | 3:09.17 | 168712 | 182903
14 | 40:38.54 | 5:36.06 | 182904 | 208109


Track 1

Filename R:\Work\Musica Nuda - Complici (2011) [FLAC]\01 - Vado giu.wav

Pre-gap length 0:00:02.00

Peak level 97.7 %
Extraction speed 2.6 X
Track quality 99.9 %
Test CRC F6229404
Copy CRC F6229404
Accurately ripped (confidence 2) [861F7A10] (AR v1)
Copy OK

Track 2

Filename R:\Work\Musica Nuda - Complici (2011) [FLAC]\02 - Una notte disperata.wav

Peak level 97.7 %
Extraction speed 2.5 X
Track quality 99.9 %
Test CRC DFE8448B
Copy CRC DFE8448B
Accurately ripped (confidence 2) [42249922] (AR v1)
Copy OK

Track 3

Filename R:\Work\Musica Nuda - Complici (2011) [FLAC]\03 - Complici.wav

Peak level 97.7 %
Extraction speed 2.9 X
Track quality 100.0 %
Test CRC F7B8A8E0
Copy CRC F7B8A8E0
Accurately ripped (confidence 2) [D0D747BB] (AR v1)
Copy OK

Track 4

Filename R:\Work\Musica Nuda - Complici (2011) [FLAC]\04 - Lei colorera.wav

Peak level 97.7 %
Extraction speed 3.1 X
Track quality 100.0 %
Test CRC 29C7185B
Copy CRC 29C7185B
Accurately ripped (confidence 2) [EC426AC9] (AR v1)
Copy OK

Track 5

Filename R:\Work\Musica Nuda - Complici (2011) [FLAC]\05 - Sentieri strade saluti.wav

Peak level 97.7 %
Extraction speed 2.5 X
Track quality 99.9 %
Test CRC 3B81F56C
Copy CRC 3B81F56C
Accurately ripped (confidence 2) [21D0300E] (AR v1)
Copy OK

Track 6

Filename R:\Work\Musica Nuda - Complici (2011) [FLAC]\06 - Mirza.wav

Peak level 97.7 %
Extraction speed 2.9 X
Track quality 100.0 %
Test CRC 820F16B3
Copy CRC 820F16B3
Accurately ripped (confidence 2) [908948BE] (AR v1)
Copy OK

Track 7

Filename R:\Work\Musica Nuda - Complici (2011) [FLAC]\07 - When I drink.wav

Peak level 97.7 %
Extraction speed 3.0 X
Track quality 100.0 %
Test CRC 0AE177F0
Copy CRC 0AE177F0
Accurately ripped (confidence 2) [DC14A959] (AR v1)
Copy OK

Track 8

Filename R:\Work\Musica Nuda - Complici (2011) [FLAC]\08 - Rimando.wav

Peak level 97.7 %
Extraction speed 3.0 X
Track quality 100.0 %
Test CRC 6378E36F
Copy CRC 6378E36F
Accurately ripped (confidence 2) [6F1F483D] (AR v1)
Copy OK

Track 9

Filename R:\Work\Musica Nuda - Complici (2011) [FLAC]\09 - I giorni di festa.wav

Peak level 97.7 %
Extraction speed 3.1 X
Track quality 100.0 %
Test CRC 23818136
Copy CRC 23818136
Accurately ripped (confidence 2) [ECE93C13] (AR v1)
Copy OK

Track 10

Filename R:\Work\Musica Nuda - Complici (2011) [FLAC]\10 - Bach Aire.wav

Peak level 97.7 %
Extraction speed 3.0 X
Track quality 100.0 %
Test CRC C0EB5873
Copy CRC C0EB5873
Accurately ripped (confidence 2) [9FE046D3] (AR v1)
Copy OK

Track 11

Filename R:\Work\Musica Nuda - Complici (2011) [FLAC]\11 - Professionalita.wav

Peak level 80.3 %
Extraction speed 2.6 X
Track quality 99.9 %
Test CRC 7B56463D
Copy CRC 7B56463D
Accurately ripped (confidence 2) [38B7A61C] (AR v1)
Copy OK

Track 12

Filename R:\Work\Musica Nuda - Complici (2011) [FLAC]\12 - Mon amour.wav

Peak level 97.7 %
Extraction speed 2.7 X
Track quality 100.0 %
Test CRC C534AE4D
Copy CRC C534AE4D
Accurately ripped (confidence 2) [C99473D6] (AR v1)
Copy OK

Track 13

Filename R:\Work\Musica Nuda - Complici (2011) [FLAC]\13 - Cinema.wav

Peak level 97.7 %
Extraction speed 2.5 X
Track quality 99.9 %
Test CRC 38E7D19C
Copy CRC 38E7D19C
Accurately ripped (confidence 2) [BB06DF22] (AR v1)
Copy OK

Track 14

Filename R:\Work\Musica Nuda - Complici (2011) [FLAC]\14 - Felicita.wav

Pre-gap length 0:00:23.48

Peak level 97.7 %
Extraction speed 3.2 X
Track quality 100.0 %
Test CRC 22528CDE
Copy CRC 22528CDE
Accurately ripped (confidence 2) [9AEB8FB4] (AR v1)
Copy OK


All tracks accurately ripped

No errors occurred

End of status report

==== Log checksum 557087D3284AAC3F951C2D7578D2F96F15115654FAAD5677F4429EF0F47A5DC7 ====

foobar2000 1.2 / Dynamic Range Meter 1.1.1
log date: 2016-01-09 14:22:35

––––––––––––––––––––––––––––––––––––––––
Analyzed: Musica Nuda / Complici
––––––––––––––––––––––––––––––––––––––––

DR Peak RMS Duration Track
––––––––––––––––––––––––––––––––––––––––
DR10 -0.20 dB -12.23 dB 3:23 01-Vado giu
DR10 -0.20 dB -12.81 dB 2:50 02-Una notte disperata
DR7 -0.20 dB -8.42 dB 2:46 03-Complici
DR8 -0.20 dB -11.08 dB 4:16 04-Lei colorera
DR9 -0.20 dB -10.69 dB 2:54 05-Sentieri strade saluti
DR7 -0.20 dB -8.15 dB 2:40 06-Mirza
DR10 -0.20 dB -12.64 dB 2:59 07-When I drink
DR10 -0.20 dB -11.86 dB 2:58 08-Rimando
DR9 -0.20 dB -10.57 dB 4:04 09-I giorni di festa
DR10 -0.20 dB -12.33 dB 3:10 10-Bach Aire
DR10 -1.90 dB -13.18 dB 3:33 11-Professionalita
DR9 -0.20 dB -12.85 dB 1:57 12-Mon amour
DR10 -0.20 dB -13.64 dB 3:09 13-Cinema
DR10 -0.20 dB -12.70 dB 5:36 14-Felicita
––––––––––––––––––––––––––––––––––––––––

Number of tracks: 14
Official DR value: DR9

Samplerate: 44100 Hz
Channels: 2
Bits per sample: 16
Bitrate: 725 kbps
Codec: FLAC
================================================================================

Musica Nuda (Petra Magoni and Ferruccio Spinetti) - Complici (2011) [Re-Up]

Musica Nuda (Petra Magoni and Ferruccio Spinetti) - Complici (2011) [Re-Up]