Subcategories

Simon Rattle, Berlin Philharmonic - Mussorgsky: Pictures at an Exhibition; Borodin: Symphony No.2 (2008) [Blu-Ray]

Posted By: Vilboa
Simon Rattle, Berlin Philharmonic - Mussorgsky: Pictures at an Exhibition; Borodin: Symphony No.2 (2008) [Blu-Ray]

Simon Rattle, Berlin Philharmonic - Mussorgsky: Pictures at an Exhibition; Borodin: Symphony No.2 (2008) [Blu-Ray]
BluRay | BDMV | MPEG-2 Video / 24038 kbps / 1080i / 29,970 fps | 90 min | 21,7 Gb
Audio1: LPCM Audio / 2.0 / 24-bit | Audio2: DTS-HD Master Audio / 5.1 / 48 kHz / 24-bit / 4000 kbps

BluRay-rip | AVC | MKV 1920x1080 / 6215 kbps / 29,97 fps | 90 min | 4,89 Gb
Audio: DTS / 6ch / 48.0 KHz / 24 bits
Classical | EuroArts

A true celebration, ushering in the New Year with one of the finest orchestras and greatest conductors in the world. The 2007 Gala from Berlin features the Berliner Philharmoniker and Sir Simon Rattle in Alexander Borodin's Second Symphony, a richly lyrical work of immense poetic grandeur and fairy-tale magic, in a programme that also includes one of the greatest classical hits ever: Modest Mussorgsky's 'Pictures at an Exhibition'.

Cast:
Berlin Philharmonic
Conductor - Simon Rattle

Track List:
01. Opening Credits
Alexander Borodin:
02. Polovtsian Dances from the Opera "Prince Igor"
Symphony No. 2 in B minor
03. I. Allegro
04. II. Scherzo: Prestissimo - Allegretto
05. III. Andante
06. IV. Finale: Allegro
Modest Mussorgsky:
07. Introduction to the Opera "Khovanshchina"
Pictures at an Exhibition (Orch. Maurice Ravel)
08. Promenade
09. The Gnome
10. Promenade
11. The Old Castle
12. Promenade
13. The Tuilerie Gardens
14. Bydlo
15. Promenade
16. Ballet of the Unhatched Chicrs
17. Samuel Goldenberg and Schmuyle
18. The Marketplace at Limoges
19. Catacombae. Sepulchrum Romanum
20. Con mortuis in lingua mortua
21. Baba Yaga
22. The Great Gates of Kiev
Dmitri Shostakovich:
23. Dance from "The Golden Age" Ballet Suite, Op. 22
24. Closing Credits


Disc Title: GALA_FROM_BERLIN_2007
Disc Size: 23 316 969 821 bytes
Protection: AACS
BD-Java: Yes
Playlist: 00004.MPLS
Size: 21 739 671 552 bytes
Length: 1:30:26.521
Total Bitrate: 32,05 Mbps
Video: MPEG-2 Video / 24038 kbps / 1080i / 29,970 fps
Audio: German / LPCM Audio / 2.0 / 48 kHz / 2304 kbps / 24-bit
Audio: German / DTS-HD Master Audio / 5.1 / 48 kHz / 4000 kbps / 24-bit (DTS Core: 5.1 / 48 kHz / 1509 kbps / 24-bit)


General
Unique ID : 240257690191717312149282578715563809655 (0xB4BFF2AF8900467EBC7073F77F785B77)
Complete name : C:\Gala_From_Berlin_2007.mkv
Format : Matroska
Format version : Version 2
File size : 4.89 GiB
Duration : 1h 30mn
Overall bit rate : 7 750 Kbps
Movie name : Gala_From_Berlin_2007
Encoded date : UTC 2017-12-12 16:37:07
Writing application : DVDFab 9.1.6.8
Writing library : libebml v0.7.8 + libmatroska v0.8.1

Video
ID : 1
Format : AVC
Format/Info : Advanced Video Codec
Format profile : High@L4.1
Format settings, CABAC : Yes
Format settings, ReFrames : 2 frames
Codec ID : V_MPEG4/ISO/AVC
Duration : 1h 30mn
Bit rate : 6 215 Kbps
Width : 1 920 pixels
Height : 1 080 pixels
Display aspect ratio : 16:9
Frame rate mode : Constant
Frame rate : 29.970 fps
Color space : YUV
Chroma subsampling : 4:2:0
Bit depth : 8 bits
Scan type : Progressive
Bits/(Pixel*Frame) : 0.100
Stream size : 3.84 GiB (79%)
Writing library : x264 core 142
Encoding settings : cabac=1 / ref=1 / deblock=1:-1:-1 / analyse=0x3:0 / me=hex / subme=5 / psy=0 / mixed_ref=0 / me_range=16 / chroma_me=1 / trellis=0 / 8x8dct=1 / cqm=0 / deadzone=21,11 / fast_pskip=1 / chroma_qp_offset=0 / threads=8 / lookahead_threads=2 / sliced_threads=0 / nr=0 / decimate=1 / interlaced=0 / bluray_compat=0 / constrained_intra=0 / bframes=2 / b_pyramid=0 / b_adapt=1 / b_bias=0 / direct=1 / weightb=1 / open_gop=0 / weightp=0 / keyint=24 / keyint_min=13 / scenecut=40 / intra_refresh=0 / rc=abr / mbtree=0 / bitrate=6215 / ratetol=1.0 / qcomp=0.60 / qpmin=0 / qpmax=69 / qpstep=4 / ip_ratio=1.40 / pb_ratio=1.30 / aq=1:1.00
Default : Yes
Forced : No
Color primaries : BT.709
Transfer characteristics : BT.709
Matrix coefficients : BT.709
Color range : Limited

Audio
ID : 2
Format : DTS
Format/Info : Digital Theater Systems
Mode : 16
Format settings, Endianness : Big
Codec ID : A_DTS
Duration : 1h 30mn
Bit rate mode : Constant
Bit rate : 1 509 Kbps
Channel(s) : 6 channels
Channel positions : Front: L C R, Side: L R, LFE
Sampling rate : 48.0 KHz
Bit depth : 24 bits
Compression mode : Lossy
Stream size : 976 MiB (19%)
Language : German
Default : Yes
Forced : No

Menu
00:00:00.000 : en:Chapter 01
00:00:39.172 : en:Chapter 02
00:13:32.778 : en:Chapter 03
00:21:32.691 : en:Chapter 04
00:26:57.649 : en:Chapter 05
00:35:33.431 : en:Chapter 06
00:43:12.056 : en:Chapter 07
00:49:55.926 : en:Chapter 08
00:51:38.662 : en:Chapter 09
00:54:05.642 : en:Chapter 10
00:55:08.638 : en:Chapter 11
00:59:44.113 : en:Chapter 12
01:00:18.381 : en:Chapter 13
01:01:26.015 : en:Chapter 14
01:04:19.121 : en:Chapter 15
01:05:04.634 : en:Chapter 16
01:06:26.115 : en:Chapter 17
01:08:54.997 : en:Chapter 18
01:10:17.246 : en:Chapter 19
01:12:22.905 : en:Chapter 20
01:14:34.703 : en:Chapter 21
01:17:58.640 : en:Chapter 22
01:27:19.901 : en:Chapter 23
01:29:33.901 : en:Chapter 24
01:30:24.919 : en:Chapter 25

All screenshots taken from BDRip

Simon Rattle, Berlin Philharmonic - Mussorgsky: Pictures at an Exhibition; Borodin: Symphony No.2 (2008) [Blu-Ray]