Subcategories

My Dying Bride - 4 Studio Albums (1993-1998) [Japanese Editions]

Posted By: gribovar
My Dying Bride - 4 Studio Albums (1993-1998) [Japanese Editions]

My Dying Bride - 4 Studio Albums (1993-1998) [Japanese Editions]
EAC Rip | FLAC (image+.cue+log) - 1,72 GB | MP3 CBR 320 kbps (LAME 3.93) - 613 MB | Covers - 214 MB
Genre: Doom/Death Metal, Gothic Metal | RAR 3% Rec. | Label: Pony Canyon, Avex Inc.

My Dying Bride is a veteran English doom and gothic metal band known for serpentine compositions, dark, brooding atmospherics, beautifully produced recordings and a theatrical stage presence. Though they began as a "slower-than-usual" death metal band with brutal recordings such as 1993's As the Flower Withers and Turn Loose the Swans, the slow, dark, atmospherically brooding nature of their later recording such as 1999's The Light at the End of the World and 2001's The Dreadful Hours were invested with both classical and romantic themes, and found them ushering in gothic metal; they were also a prime influence on the second wave of doom metal alongside Anathema and Paradise Lost, the so-called "Peaceville Three" (all three bands were signed to the label at the time).

My Dying Bride - 4 Studio Albums (1993-1998) [Japanese Editions]

My Dying Bride - Turn Loose The Swans (1993) [Japanese Edition]
EAC Rip | FLAC (image+.cue+log) - 438 MB | MP3 CBR 320 kbps (LAME 3.93) - 156 MB | Covers - 53 MB
Genre: Death/Doom Metal | RAR 3% Rec. | Label: Pony Canyon (PCCY-00929), 1996

Tracklist:
01. Sear Me MCMXC III
02. Yout River
03. The Songless Bird
04. The Snow In My Hand
05. The Crown Of Sympathy
06. Turn Loose The Swans
07. Black God
08. Your River (Live) (Bonus track)

Total time: 01:06:24

Exact Audio Copy V1.5 from 20. February 2020

EAC extraction logfile from 28. March 2020, 17:43

My Dying Bride / Turn Loose The Swans (Japan)

Used drive : ASUS DRW-1612BL Adapter: 2 ID: 0

Read mode : Secure
Utilize accurate stream : Yes
Defeat audio cache : Yes
Make use of C2 pointers : No

Read offset correction : 6
Overread into Lead-In and Lead-Out : No
Fill up missing offset samples with silence : Yes
Delete leading and trailing silent blocks : No
Null samples used in CRC calculations : Yes
Used interface : Installed external ASPI interface

Used output format : User Defined Encoder
Selected bitrate : 128 kBit/s
Quality : High
Add ID3 tag : No
Command line compressor : C:\Program Files\EAC\Exact Audio Copy\Flac\flac.exe
Additional command line options : -V -8 -T "Date=%year%" -T "Genre=%genre%" %source%


TOC of the extracted CD

Track | Start | Length | Start sector | End sector
––––––––––––––––––––––––––––-
1 | 0:00.00 | 7:23.25 | 0 | 33249
2 | 7:23.25 | 9:24.02 | 33250 | 75551
3 | 16:47.27 | 7:00.00 | 75552 | 107051
4 | 23:47.27 | 7:09.00 | 107052 | 139226
5 | 30:56.27 | 12:15.28 | 139227 | 194379
6 | 43:11.55 | 10:08.45 | 194380 | 240024
7 | 53:20.25 | 4:53.67 | 240025 | 262066
8 | 58:14.17 | 8:10.20 | 262067 | 298836


Range status and errors

Selected range

Filename C:\darkbrides\My Dying Bride - Turn Loose The Swans (Japan).wav

Peak level 100.0 %
Extraction speed 9.0 X
Range quality 100.0 %
Test CRC A293881F
Copy CRC A293881F
Copy OK

No errors occurred


AccurateRip summary

Track 1 accurately ripped (confidence 2) [ADE48FA7] (AR v1)
Track 2 accurately ripped (confidence 2) [73E5C92D] (AR v1)
Track 3 accurately ripped (confidence 2) [0F668BBB] (AR v1)
Track 4 accurately ripped (confidence 2) [5AD21BA2] (AR v1)
Track 5 accurately ripped (confidence 2) [9BF57E45] (AR v1)
Track 6 accurately ripped (confidence 2) [1AAC080A] (AR v1)
Track 7 accurately ripped (confidence 2) [C0F25107] (AR v1)
Track 8 accurately ripped (confidence 2) [55EF0E48] (AR v1)

All tracks accurately ripped

End of status report

–– AcoustID Plugin V1.2.0

Total fingerprints: 8


–– CUETools DB Plugin V2.1.6

[CTDB TOCID: Ox_Hpo3ctpz0Vc4KsMCfHWlqFCI-] found
Submit result: Ox_Hpo3ctpz0Vc4KsMCfHWlqFCI- has been confirmed
Track | CTDB Status
1 | (6/6) Accurately ripped
2 | (6/6) Accurately ripped
3 | (6/6) Accurately ripped
4 | (6/6) Accurately ripped
5 | (6/6) Accurately ripped
6 | (6/6) Accurately ripped
7 | (6/6) Accurately ripped
8 | (6/6) Accurately ripped


==== Log checksum 1CAA49C71B92FD8EC901C53340FE96E04ED15F0408E8DC59B49F56BBEFC3CC39 ====

[CUETools log; Date: 01.05.2020 15:01:49; Version: 2.1.4]
[CTDB TOCID: Ox_Hpo3ctpz0Vc4KsMCfHWlqFCI-] found.
Track | CTDB Status
1 | (7/7) Accurately ripped
2 | (7/7) Accurately ripped
3 | (7/7) Accurately ripped
4 | (7/7) Accurately ripped
5 | (7/7) Accurately ripped
6 | (7/7) Accurately ripped
7 | (7/7) Accurately ripped
8 | (7/7) Accurately ripped
[AccurateRip ID: 00149af6-008a17a8-6f0f9008] found.
Track [ CRC | V2 ] Status
01 [ade48fa7|6928536c] (2+0/2) Accurately ripped
02 [73e5c92d|95713877] (2+0/2) Accurately ripped
03 [0f668bbb|85e2731b] (2+0/2) Accurately ripped
04 [5ad21ba2|c45ac21e] (2+0/2) Accurately ripped
05 [9bf57e45|d7f19d07] (2+0/2) Accurately ripped
06 [1aac080a|6a69ca32] (2+0/2) Accurately ripped
07 [c0f25107|ed5bacc7] (2+0/2) Accurately ripped
08 [55ef0e48|20d2adf3] (2+0/2) Accurately ripped

Track Peak [ CRC32 ] [W/O NULL] [ LOG ]
– 100,0 [A293881F] [BC682DD8] CRC32
01 99,8 [86588A7A] [D42415BB]
02 100,0 [63A77CF9] [50ECF507]
03 100,0 [1C8A96BA] [A16F9385]
04 100,0 [1EEC8F4C] [06F6D4BD]
05 100,0 [88B42F95] [57B065CD]
06 100,0 [6CC50FB4] [21E7E618]
07 99,5 [93675359] [9F128C4B]
08 95,8 [416CC26D] [3FBC6AFE]

My Dying Bride - 4 Studio Albums (1993-1998) [Japanese Editions]

My Dying Bride - The Angel And The Dark River (1995) [Japanese Edition]
EAC Rip | FLAC (image+.cue+log) - 417 MB | MP3 CBR 320 kbps (LAME 3.93) - 154 MB | Covers - 42 MB
Genre: Doom Metal, Gothic Metal | RAR 3% Rec. | Label: Pony Canyon (PCCY-00931), 1996

Tracklist:
01. The Cry Of Mankind
02. From Darkest Skies
03. Black Voyage
04. A Sea To Suffer In
05. Two Winters Only
06. Your Shameful Heaven
07. A Sea To Suffer In (Live) (Bonus track)
08. Your Shameful Heaven (Live) (Bonus track)

Total time: 01:05:21

Exact Audio Copy V1.5 from 20. February 2020

EAC extraction logfile from 28. March 2020, 20:52

My Dying Bride / The Angel And The Dark River (Japan)

Used drive : ASUS DRW-1612BL Adapter: 2 ID: 0

Read mode : Secure
Utilize accurate stream : Yes
Defeat audio cache : Yes
Make use of C2 pointers : No

Read offset correction : 6
Overread into Lead-In and Lead-Out : No
Fill up missing offset samples with silence : Yes
Delete leading and trailing silent blocks : No
Null samples used in CRC calculations : Yes
Used interface : Installed external ASPI interface

Used output format : User Defined Encoder
Selected bitrate : 128 kBit/s
Quality : High
Add ID3 tag : No
Command line compressor : C:\Program Files\EAC\Exact Audio Copy\Flac\flac.exe
Additional command line options : -V -8 -T "Date=%year%" -T "Genre=%genre%" %source%


TOC of the extracted CD

Track | Start | Length | Start sector | End sector
––––––––––––––––––––––––––––-
1 | 0:00.00 | 12:12.32 | 0 | 54931
2 | 12:12.32 | 7:48.08 | 54932 | 90039
3 | 20:00.40 | 9:46.62 | 90040 | 134051
4 | 29:47.27 | 6:31.03 | 134052 | 163379
5 | 36:18.30 | 9:01.45 | 163380 | 203999
6 | 45:20.00 | 7:01.27 | 204000 | 235601
7 | 52:21.27 | 6:24.38 | 235602 | 264439
8 | 58:45.65 | 6:34.50 | 264440 | 294039


Range status and errors

Selected range

Filename C:\darkbrides\My Dying Bride - The Angel And The Dark River (Japan).wav

Peak level 98.6 %
Extraction speed 8.9 X
Range quality 100.0 %
Test CRC 088456FC
Copy CRC 088456FC
Copy OK

No errors occurred


AccurateRip summary

Track 1 accurately ripped (confidence 1) [22BB9726] (AR v2)
Track 2 accurately ripped (confidence 1) [5C4FB252] (AR v2)
Track 3 accurately ripped (confidence 1) [EA27ED4B] (AR v2)
Track 4 accurately ripped (confidence 1) [676556DE] (AR v2)
Track 5 accurately ripped (confidence 1) [D7A27497] (AR v2)
Track 6 accurately ripped (confidence 1) [E9BAD76B] (AR v2)
Track 7 accurately ripped (confidence 1) [6A9AD690] (AR v2)
Track 8 accurately ripped (confidence 1) [F820FD41] (AR v2)

All tracks accurately ripped

End of status report

–– AcoustID Plugin V1.2.0

Total fingerprints: 8


–– CUETools DB Plugin V2.1.6

[CTDB TOCID: jS1YZ6BoSegdtr4iKCmn5VfZz2U-] found
Submit result: jS1YZ6BoSegdtr4iKCmn5VfZz2U- has been confirmed
Track | CTDB Status
1 | (4/4) Accurately ripped
2 | (4/4) Accurately ripped
3 | (4/4) Accurately ripped
4 | (4/4) Accurately ripped
5 | (4/4) Accurately ripped
6 | (4/4) Accurately ripped
7 | (4/4) Accurately ripped
8 | (4/4) Accurately ripped


==== Log checksum D8C9CAE2E1390D06F33EFF8B71BD616EC645C6A109464C228ED68FBC2CDE9B25 ====

[CUETools log; Date: 01.05.2020 15:02:14; Version: 2.1.4]
[CTDB TOCID: jS1YZ6BoSegdtr4iKCmn5VfZz2U-] found.
Track | CTDB Status
1 | (5/5) Accurately ripped
2 | (5/5) Accurately ripped
3 | (5/5) Accurately ripped
4 | (5/5) Accurately ripped
5 | (5/5) Accurately ripped
6 | (5/5) Accurately ripped
7 | (5/5) Accurately ripped
8 | (5/5) Accurately ripped
[AccurateRip ID: 0015fae6-008ef27b-620f5008] found.
Track [ CRC | V2 ] Status
01 [c905e2c0|22bb9726] (1+1/2) Accurately ripped
02 [b61ba111|5c4fb252] (1+1/2) Accurately ripped
03 [db8b9eb7|ea27ed4b] (1+1/2) Accurately ripped
04 [3d344223|676556de] (1+1/2) Accurately ripped
05 [a0984945|d7a27497] (1+1/2) Accurately ripped
06 [67437db5|e9bad76b] (1+1/2) Accurately ripped
07 [ed3fc4ca|6a9ad690] (1+1/2) Accurately ripped
08 [786f25b4|f820fd41] (1+1/2) Accurately ripped

Track Peak [ CRC32 ] [W/O NULL] [ LOG ]
– 98,6 [088456FC] [2202DE7F] CRC32
01 98,4 [FC328767] [AC47E042]
02 98,6 [DABAEBB0] [BF29EA32]
03 98,3 [38EBA6A8] [1DDDDE98]
04 98,3 [3D0C1A13] [E84834BF]
05 98,4 [EA995228] [B53F10C7]
06 98,5 [88EF3F0A] [B7EAF8BA]
07 94,5 [F4A315BF] [8D0675FC]
08 92,6 [A45874BB] [C5FCEF9D]

My Dying Bride - 4 Studio Albums (1993-1998) [Japanese Editions]

My Dying Bride - Like Gods Of The Sun (1996) [Japanese Edition]
EAC Rip | FLAC (image+.cue+log) - 454 MB | MP3 CBR 320 kbps (LAME 3.93) - 157 MB | Covers - 55 MB
Genre: Doom Metal, Gothic Metal | RAR 3% Rec. | Label: Pony Canyon (PCCY-01032)

Tracklist:
01. Like Gods Of The Sun
02. The Dark Caress
03. Grace Unhearing
04. A Kiss To Remeber
05. All Swept Away
06. For You
07. It Will Come
08. Here In The Throat
09. For My Fallen Angel
10. It Will Come (Nightmare Mix) (Bonus track)
11. Grace Unhearing (Portishell Mix) (Bonus track)

Total time: 01:06:52

Exact Audio Copy V1.5 from 20. February 2020

EAC extraction logfile from 29. March 2020, 1:04

My Dying Bride / Like Gods Of The Sun (Japan)

Used drive : ASUS DRW-1612BL Adapter: 2 ID: 0

Read mode : Secure
Utilize accurate stream : Yes
Defeat audio cache : Yes
Make use of C2 pointers : No

Read offset correction : 6
Overread into Lead-In and Lead-Out : No
Fill up missing offset samples with silence : Yes
Delete leading and trailing silent blocks : No
Null samples used in CRC calculations : Yes
Used interface : Installed external ASPI interface

Used output format : User Defined Encoder
Selected bitrate : 128 kBit/s
Quality : High
Add ID3 tag : No
Command line compressor : C:\Program Files\EAC\Exact Audio Copy\Flac\flac.exe
Additional command line options : -V -8 -T "Date=%year%" -T "Genre=%genre%" %source%


TOC of the extracted CD

Track | Start | Length | Start sector | End sector
––––––––––––––––––––––––––––-
1 | 0:00.00 | 5:40.55 | 0 | 25554
2 | 5:40.55 | 5:59.00 | 25555 | 52479
3 | 11:39.55 | 7:19.07 | 52480 | 85411
4 | 18:58.62 | 7:31.33 | 85412 | 119269
5 | 26:30.20 | 4:17.47 | 119270 | 138591
6 | 30:47.67 | 6:37.20 | 138592 | 168386
7 | 37:25.12 | 4:28.30 | 168387 | 188516
8 | 41:53.42 | 6:21.53 | 188517 | 217144
9 | 48:15.20 | 5:55.72 | 217145 | 243841
10 | 54:11.17 | 5:36.15 | 243842 | 269056
11 | 59:47.32 | 7:05.00 | 269057 | 300931


Range status and errors

Selected range

Filename C:\darkbrides\My Dying Bride - Like Gods Of The Sun (Japan).wav

Peak level 100.0 %
Extraction speed 8.2 X
Range quality 99.9 %
Test CRC AAE70667
Copy CRC AAE70667
Copy OK

No errors occurred


AccurateRip summary

Track 1 accurately ripped (confidence 2) [4A9E3097] (AR v2)
Track 2 accurately ripped (confidence 2) [535FA9FA] (AR v2)
Track 3 accurately ripped (confidence 2) [DFA1CCA9] (AR v2)
Track 4 accurately ripped (confidence 2) [A88AC94E] (AR v2)
Track 5 accurately ripped (confidence 2) [5BAFA985] (AR v2)
Track 6 accurately ripped (confidence 2) [B007A777] (AR v2)
Track 7 accurately ripped (confidence 2) [3F2065B1] (AR v2)
Track 8 accurately ripped (confidence 2) [B5789C15] (AR v2)
Track 9 accurately ripped (confidence 2) [7BBE44FF] (AR v2)
Track 10 accurately ripped (confidence 2) [61950065] (AR v2)
Track 11 accurately ripped (confidence 2) [C0CD9A35] (AR v2)

All tracks accurately ripped

End of status report

–– AcoustID Plugin V1.2.0

Total fingerprints: 11


–– CUETools DB Plugin V2.1.6

[CTDB TOCID: VErqREn7qRFg6PwNeTqVtcW8Cbo-] found
Submit result: VErqREn7qRFg6PwNeTqVtcW8Cbo- has been confirmed
Track | CTDB Status
1 | (38/38) Accurately ripped
2 | (36/38) Accurately ripped
3 | (38/38) Accurately ripped
4 | (36/38) Accurately ripped
5 | (38/38) Accurately ripped
6 | (38/38) Accurately ripped
7 | (34/38) Accurately ripped
8 | (36/38) Accurately ripped
9 | (38/38) Accurately ripped
10 | (38/38) Accurately ripped
11 | (38/38) Accurately ripped


==== Log checksum 515449D2B76E006DB5D5646ACBD230EDF08C9A12C6C280AD1C75DA15DFC8E270 ====

[CUETools log; Date: 01.05.2020 15:02:39; Version: 2.1.4]
[CTDB TOCID: VErqREn7qRFg6PwNeTqVtcW8Cbo-] found.
Track | CTDB Status
1 | (39/39) Accurately ripped
2 | (37/39) Accurately ripped
3 | (39/39) Accurately ripped
4 | (37/39) Accurately ripped
5 | (39/39) Accurately ripped
6 | (39/39) Accurately ripped
7 | (35/39) Accurately ripped
8 | (37/39) Accurately ripped
9 | (39/39) Accurately ripped
10 | (39/39) Accurately ripped
11 | (39/39) Accurately ripped
[AccurateRip ID: 001b9b25-00ee78c2-9c0fac0b] found.
Track [ CRC | V2 ] Status
01 [cdfdd330|4a9e3097] (00+02/26) Accurately ripped
02 [7ad97ae0|535fa9fa] (00+02/25) Accurately ripped
03 [1e44f065|dfa1cca9] (00+02/26) Accurately ripped
04 [0fbd182e|a88ac94e] (00+02/23) Accurately ripped
05 [694868c8|5bafa985] (00+02/26) Accurately ripped
06 [7d2d19d0|b007a777] (00+02/26) Accurately ripped
07 [8f1a337a|3f2065b1] (00+02/26) Accurately ripped
08 [b2b3abb3|b5789c15] (00+02/26) Accurately ripped
09 [3d90d1ce|7bbe44ff] (00+02/26) Accurately ripped
10 [57e9ed50|61950065] (00+02/27) Accurately ripped
11 [e4298d98|c0cd9a35] (00+02/27) Accurately ripped
Offsetted by -1995:
01 [e3135237] (03/26) Accurately ripped
02 [c8f6b761] (03/25) Accurately ripped
03 [7f0249aa] (03/26) Accurately ripped
04 [26a93dff] (03/23) Accurately ripped
05 [5b850c18] (03/26) Accurately ripped
06 [829e2e60] (03/26) Accurately ripped
07 [76287795] (03/26) Accurately ripped
08 [578aa2a5] (03/26) Accurately ripped
09 [8815339b] (03/26) Accurately ripped
10 [ce98de3a] (04/27) Accurately ripped
11 [3d3ddc40] (04/27) Accurately ripped
Offsetted by -1331:
01 [b38238bf] (03/26) Accurately ripped
02 [d5552e99] (03/25) Accurately ripped
03 [19c637c2] (03/26) Accurately ripped
04 [e9e82eb7] (02/23) Accurately ripped
05 [df443598] (03/26) Accurately ripped
06 [b14fdde0] (03/26) Accurately ripped
07 [f22ec43e] (03/26) Accurately ripped
08 [fbba3b74] (03/26) Accurately ripped
09 [1f565773] (03/26) Accurately ripped
10 [3dbe7f6a] (03/27) Accurately ripped
11 [d7bbc900] (03/27) Accurately ripped
Offsetted by -664:
01 [fd8eeca8] (08/26) Accurately ripped
02 [6e7b03a8] (08/25) Accurately ripped
03 [8381024d] (08/26) Accurately ripped
04 [4c7e2776] (08/23) Accurately ripped
05 [e5893f48] (08/26) Accurately ripped
06 [4e7b6a50] (08/26) Accurately ripped
07 [19ce3199] (08/26) Accurately ripped
08 [8c18668c] (08/26) Accurately ripped
09 [a64fadf6] (08/26) Accurately ripped
10 [e8c44c20] (08/27) Accurately ripped
11 [49aba0d8] (08/27) Accurately ripped

Track Peak [ CRC32 ] [W/O NULL] [ LOG ]
– 100,0 [AAE70667] [48950A15] CRC32
01 100,0 [E361EF19] [2A00D07E]
02 100,0 [DE279D84] [FF141B2B]
03 100,0 [BDB7E64A] [D0D4874B]
04 100,0 [6C217169] [08DAC47A]
05 100,0 [8D7C24E8] [F819D2CB]
06 100,0 [02E4FEE1] [3CC406B8]
07 100,0 [D6217549] [1C9B610C]
08 100,0 [180ED249] [9BE0E11B]
09 75,0 [D061A305] [C5087CD4]
10 100,0 [C226CF97] [F2D5154E]
11 100,0 [3FDC608D] [DF00402A]

My Dying Bride - 4 Studio Albums (1993-1998) [Japanese Editions]

My Dying Bride - 34.788%… Complete (1998) [Japanese Edition]
EAC Rip | FLAC (image+.cue+log) - 413 MB | MP3 CBR 320 kbps (LAME 3.93) - 146 MB | Covers - 64 MB
Genre: Doom Metal, Gothic Metal | RAR 3% Rec. | Label: Avex Inc. (AVCB-66064)

Tracklist:
01. The Whore, The Cook And The Mother
02. The Stance Of Evander Sinque
03. Der Überlebende
04. Heroin Chic
05. Apocalypse Woman
06. Base Level Erotica
07. Under Your Wings And Into Your Arms
08. Follower (Bonus track)

Total time: 01:01:55

Exact Audio Copy V1.5 from 20. February 2020

EAC extraction logfile from 29. March 2020, 2:21

My Dying Bride / 34.788%…… Complete (Japan)

Used drive : ASUS DRW-1612BL Adapter: 2 ID: 0

Read mode : Secure
Utilize accurate stream : Yes
Defeat audio cache : Yes
Make use of C2 pointers : No

Read offset correction : 6
Overread into Lead-In and Lead-Out : No
Fill up missing offset samples with silence : Yes
Delete leading and trailing silent blocks : No
Null samples used in CRC calculations : Yes
Used interface : Installed external ASPI interface

Used output format : User Defined Encoder
Selected bitrate : 128 kBit/s
Quality : High
Add ID3 tag : No
Command line compressor : C:\Program Files\EAC\Exact Audio Copy\Flac\flac.exe
Additional command line options : -V -8 -T "Date=%year%" -T "Genre=%genre%" %source%


TOC of the extracted CD

Track | Start | Length | Start sector | End sector
––––––––––––––––––––––––––––-
1 | 0:00.00 | 11:59.32 | 0 | 53956
2 | 11:59.32 | 5:31.35 | 53957 | 78816
3 | 17:30.67 | 7:38.05 | 78817 | 113171
4 | 25:08.72 | 8:03.40 | 113172 | 149436
5 | 33:12.37 | 7:37.43 | 149437 | 183754
6 | 40:50.05 | 9:53.72 | 183755 | 228301
7 | 50:44.02 | 5:58.05 | 228302 | 255156
8 | 56:42.07 | 5:13.13 | 255157 | 278644
9 | 64:27.20 | 3:09.50 | 290045 | 304269


Range status and errors

Selected range

Filename C:\darkbrides\My Dying Bride - 34.788%…… Complete (Japan).wav

Peak level 98.9 %
Extraction speed 8.4 X
Range quality 100.0 %
Test CRC 4890D6F2
Copy CRC 4890D6F2
Copy OK

No errors occurred


AccurateRip summary

Track 1 accurately ripped (confidence 1) [6F9815BD] (AR v2)
Track 2 accurately ripped (confidence 1) [015F997C] (AR v2)
Track 3 accurately ripped (confidence 1) [2CB21382] (AR v2)
Track 4 accurately ripped (confidence 1) [7AB916F7] (AR v2)
Track 5 accurately ripped (confidence 1) [8925329A] (AR v2)
Track 6 accurately ripped (confidence 1) [3B3840AB] (AR v2)
Track 7 accurately ripped (confidence 1) [42839CD6] (AR v2)
Track 8 accurately ripped (confidence 1) [5F43E377] (AR v2)

All tracks accurately ripped

End of status report

–– AcoustID Plugin V1.2.0

Total fingerprints: 8


–– CUETools DB Plugin V2.1.6

[CTDB TOCID: MR1Q2eaXyyhtyiVGcJDlk_5tCts-] found
Submit result: MR1Q2eaXyyhtyiVGcJDlk_5tCts- has been confirmed
Track | CTDB Status
1 | (1/1) Accurately ripped
2 | (1/1) Accurately ripped
3 | (1/1) Accurately ripped
4 | (1/1) Accurately ripped
5 | (1/1) Accurately ripped
6 | (1/1) Accurately ripped
7 | (1/1) Accurately ripped
8 | (1/1) Accurately ripped


==== Log checksum F76BA6B265761B7AF6967159020631D27344849895399A46F94AE0DC92BFDE3B ====

[CUETools log; Date: 01.05.2020 15:03:06; Version: 2.1.4]
CD-Extra data track length 03:09:50.
[CTDB TOCID: MR1Q2eaXyyhtyiVGcJDlk_5tCts-] found.
Track | CTDB Status
1 | (2/2) Accurately ripped
2 | (2/2) Accurately ripped
3 | (2/2) Accurately ripped
4 | (2/2) Accurately ripped
5 | (2/2) Accurately ripped
6 | (2/2) Accurately ripped
7 | (2/2) Accurately ripped
8 | (2/2) Accurately ripped
[AccurateRip ID: 0014db53-0089b439-710fd809] found.
Track [ CRC | V2 ] Status
01 [bc07afa6|6f9815bd] (0+1/1) Accurately ripped
02 [2abe776f|015f997c] (0+1/1) Accurately ripped
03 [bc55ce87|2cb21382] (0+1/1) Accurately ripped
04 [a3ccfede|7ab916f7] (0+1/1) Accurately ripped
05 [f3428fb2|8925329a] (0+1/1) Accurately ripped
06 [faba9c15|3b3840ab] (0+1/1) Accurately ripped
07 [89ef6579|42839cd6] (0+1/1) Accurately ripped
08 [db670c4b|5f43e377] (0+1/1) Accurately ripped

Track Peak [ CRC32 ] [W/O NULL] [ LOG ]
– 98,9 [4890D6F2] [6AC589C2] CRC32
01 98,5 [91CF7F9B] [20A4B88D]
02 98,6 [03FD7B3D] [3FAE8967]
03 98,5 [D0FC2BA0] [43912248]
04 98,7 [B3D513A0] [3133C8C5]
05 98,5 [1320005C] [D764CE1B]
06 98,9 [5C7F414F] [80E325BE]
07 98,1 [C0A1E1DE] [81A4CDBF]
08 98,9 [6B9D3DD6] [E4FEDA6F]

Thanks to darkbrides

See also:
My Dying Bride - The Ghost of Orion (2020)