Subcategories

My Sleeping Karma - Satya (2008)

Posted By: gribovar
My Sleeping Karma - Satya (2008)

My Sleeping Karma - Satya (2008)
EAC Rip | FLAC (tracks+.cue+log) - 329 MB | MP3 CBR 320 kbps (LAME 3.93) - 140 MB | Covers (2 MB) included
Genre: Psychedelic/Space Rock | RAR 3% Rec. | Label: Elektrohasch (Elektrohasch 126)

Hailing from the Aschaffenburg region in Germany My Sleeping Karma started in 2005 as a side-project of the stoner rock band 'The Great Escape'. In March 2006 they began with recordings for their eponymous debut and when 'The Great Escape' disbanded in September they could fully concentrate on the new project. It was the end of the year when the band finally offered the self-released album which holds a blend of psychedelic, space, stoner and post rock.
For the next album the band members still tried to take more attention for detail. They released 'Satya' in in 2008 provided with some Buddhistic references, samples and some vocals - hypnotic, trippy spacey as well as explosive here and there.

Tracklist:
01. Ahimsa
02. Interlude 1
03. Satya
04. Interlude 2
05. A-Steya
06. Interlude 3
07. Svaatanya
08. Interlude 4
09. Brahmacharya
10. Apangraha
11. Interlude 5
12. Sandi

Total time: 58:34

Exact Audio Copy V0.99 prebeta 5 from 4. May 2009

EAC extraction logfile from 17. January 2011, 17:40

My Sleeping Karma / Satya

Used drive : _NEC DVD+-RW ND-3650A Adapter: 4 ID: 0

Read mode : Secure
Utilize accurate stream : Yes
Defeat audio cache : Yes
Make use of C2 pointers : No

Read offset correction : 48
Overread into Lead-In and Lead-Out : No
Fill up missing offset samples with silence : Yes
Delete leading and trailing silent blocks : No
Null samples used in CRC calculations : Yes
Used interface : Native Win32 interface for Win NT & 2000
Gap handling : Appended to previous track

Used output format : User Defined Encoder
Selected bitrate : 320 kBit/s
Quality : High
Add ID3 tag : No
Command line compressor : C:\Program Files (x86)\Exact Audio Copy\Flac\flac.exe
Additional command line options : -V -8 -T "artist=%a" -T "title=%t" -T "album=%g" -T "date=%y" -T "tracknumber=%n" -T "genre=%m" %s


TOC of the extracted CD

Track | Start | Length | Start sector | End sector
––––––––––––––––––––––––––––-
1 | 0:00.00 | 5:12.26 | 0 | 23425
2 | 5:12.26 | 3:12.74 | 23426 | 37899
3 | 8:25.25 | 7:51.10 | 37900 | 73234
4 | 16:16.35 | 1:32.44 | 73235 | 80178
5 | 17:49.04 | 7:14.13 | 80179 | 112741
6 | 25:03.17 | 1:41.55 | 112742 | 120371
7 | 26:44.72 | 6:48.54 | 120372 | 151025
8 | 33:33.51 | 1:15.10 | 151026 | 156660
9 | 34:48.61 | 7:14.21 | 156661 | 189231
10 | 42:03.07 | 6:48.38 | 189232 | 219869
11 | 48:51.45 | 1:41.06 | 219870 | 227450
12 | 50:32.51 | 8:06.09 | 227451 | 263909


Track 1

Filename C:\Users\Robin\Music\Lossless Robin\My Sleeping Karma - Satya (2008) [FLAC + Scans]\01 Ahimsa.wav

Pre-gap length 0:00:02.00

Peak level 98.3 %
Track quality 100.0 %
Test CRC 6FC187CC
Copy CRC 6FC187CC
Accurately ripped (confidence 3) [0C21C9E9]
Copy OK

Track 2

Filename C:\Users\Robin\Music\Lossless Robin\My Sleeping Karma - Satya (2008) [FLAC + Scans]\02 Interlude 1.wav

Peak level 54.8 %
Track quality 100.0 %
Test CRC E58E0A53
Copy CRC E58E0A53
Accurately ripped (confidence 3) [6D1D9359]
Copy OK

Track 3

Filename C:\Users\Robin\Music\Lossless Robin\My Sleeping Karma - Satya (2008) [FLAC + Scans]\03 Satya.wav

Peak level 98.3 %
Track quality 100.0 %
Test CRC FA751622
Copy CRC FA751622
Accurately ripped (confidence 3) [545419EE]
Copy OK

Track 4

Filename C:\Users\Robin\Music\Lossless Robin\My Sleeping Karma - Satya (2008) [FLAC + Scans]\04 Interlude 2.wav

Peak level 45.4 %
Track quality 100.0 %
Test CRC 97385F3B
Copy CRC 97385F3B
Accurately ripped (confidence 3) [AD4F96CE]
Copy OK

Track 5

Filename C:\Users\Robin\Music\Lossless Robin\My Sleeping Karma - Satya (2008) [FLAC + Scans]\05 A-Steya.wav

Peak level 98.3 %
Track quality 100.0 %
Test CRC 983AC5EE
Copy CRC 983AC5EE
Accurately ripped (confidence 3) [803550BB]
Copy OK

Track 6

Filename C:\Users\Robin\Music\Lossless Robin\My Sleeping Karma - Satya (2008) [FLAC + Scans]\06 Interlude 3.wav

Peak level 51.0 %
Track quality 100.0 %
Test CRC D2B7926A
Copy CRC D2B7926A
Accurately ripped (confidence 3) [A3AFA71E]
Copy OK

Track 7

Filename C:\Users\Robin\Music\Lossless Robin\My Sleeping Karma - Satya (2008) [FLAC + Scans]\07 Svaatanya.wav

Peak level 98.3 %
Track quality 100.0 %
Test CRC 023DA66A
Copy CRC 023DA66A
Accurately ripped (confidence 3) [8D1262B8]
Copy OK

Track 8

Filename C:\Users\Robin\Music\Lossless Robin\My Sleeping Karma - Satya (2008) [FLAC + Scans]\08 Interlude 4.wav

Peak level 33.7 %
Track quality 100.0 %
Test CRC E5F9B30B
Copy CRC E5F9B30B
Accurately ripped (confidence 3) [61A8EC8A]
Copy OK

Track 9

Filename C:\Users\Robin\Music\Lossless Robin\My Sleeping Karma - Satya (2008) [FLAC + Scans]\09 Brahmacharya.wav

Peak level 98.3 %
Track quality 100.0 %
Test CRC BF746A3C
Copy CRC BF746A3C
Accurately ripped (confidence 3) [34E2BE0E]
Copy OK

Track 10

Filename C:\Users\Robin\Music\Lossless Robin\My Sleeping Karma - Satya (2008) [FLAC + Scans]\10 Apangraha.wav

Peak level 98.3 %
Track quality 100.0 %
Test CRC 646AE525
Copy CRC 646AE525
Accurately ripped (confidence 3) [7B799AF8]
Copy OK

Track 11

Filename C:\Users\Robin\Music\Lossless Robin\My Sleeping Karma - Satya (2008) [FLAC + Scans]\11 Interlude 5.wav

Peak level 36.0 %
Track quality 100.0 %
Test CRC B012D070
Copy CRC B012D070
Accurately ripped (confidence 3) [616D7B55]
Copy OK

Track 12

Filename C:\Users\Robin\Music\Lossless Robin\My Sleeping Karma - Satya (2008) [FLAC + Scans]\12 Sandi.wav

Peak level 98.3 %
Track quality 100.0 %
Test CRC 395DE53E
Copy CRC 395DE53E
Accurately ripped (confidence 3) [36B3ABCA]
Copy OK


All tracks accurately ripped

No errors occurred

End of status report

[CUETools log; Date: 29.07.2017 12:28:51; Version: 2.1.4]
[CTDB TOCID: rW7cTvMwwDzHFtGeWoqUezuLiqA-] found.
Track | CTDB Status
1 | (32/32) Accurately ripped
2 | (32/32) Accurately ripped
3 | (32/32) Accurately ripped
4 | (32/32) Accurately ripped
5 | (32/32) Accurately ripped
6 | (32/32) Accurately ripped
7 | (32/32) Accurately ripped
8 | (32/32) Accurately ripped
9 | (32/32) Accurately ripped
10 | (32/32) Accurately ripped
11 | (32/32) Accurately ripped
12 | (32/32) Accurately ripped
[AccurateRip ID: 001944c4-00ebf14d-8b0dbe0c] found.
Track [ CRC | V2 ] Status
01 [0c21c9e9|a6b81b5e] (04+13/22) Accurately ripped
02 [6d1d9359|dfc19a37] (04+13/22) Accurately ripped
03 [545419ee|8b404e08] (04+13/22) Accurately ripped
04 [ad4f96ce|9a300b52] (04+13/22) Accurately ripped
05 [803550bb|ba501c37] (04+13/22) Accurately ripped
06 [a3afa71e|c24bb1e6] (04+13/22) Accurately ripped
07 [8d1262b8|34e04d55] (04+13/22) Accurately ripped
08 [61a8ec8a|1b0a7604] (04+13/22) Accurately ripped
09 [34e2be0e|29ec50b1] (04+13/22) Accurately ripped
10 [7b799af8|7de37dec] (04+13/22) Accurately ripped
11 [616d7b55|b90734eb] (04+13/22) Accurately ripped
12 [36b3abca|5a0871ce] (04+13/22) Accurately ripped
Offsetted by 6:
01 [8e11cfa0] (00/22) No match (V2 was not tested)
02 [6f6e889c] (00/22) No match (V2 was not tested)
03 [a58008e3] (00/22) No match (V2 was not tested)
04 [34e04003] (00/22) No match (V2 was not tested)
05 [1fd4fa43] (00/22) No match (V2 was not tested)
06 [276eb849] (00/22) No match (V2 was not tested)
07 [65aaebc3] (00/22) No match (V2 was not tested)
08 [d0bf58ad] (00/22) No match (V2 was not tested)
09 [cfca5a4e] (00/22) No match (V2 was not tested)
10 [e293f558] (00/22) No match (V2 was not tested)
11 [1d81bdc4] (00/22) No match (V2 was not tested)
12 [64903d63] (00/22) No match (V2 was not tested)

Track Peak [ CRC32 ] [W/O NULL] [ LOG ]
– 98,3 [725AEDB1] [B38EE94C]
01 98,3 [6FC187CC] [0D2B6149] CRC32
02 54,8 [E58E0A53] [B9A40777] CRC32
03 98,3 [FA751622] [74DFC7C5] CRC32
04 45,4 [97385F3B] [65B2E3CD] CRC32
05 98,3 [983AC5EE] [37B1D390] CRC32
06 51,0 [D2B7926A] [17DEFFC4] CRC32
07 98,3 [023DA66A] [092C92A0] CRC32
08 33,7 [E5F9B30B] [DA2E0A0F] CRC32
09 98,3 [BF746A3C] [42DD331F] CRC32
10 98,3 [646AE525] [5A00D755] CRC32
11 36,0 [B012D070] [04770938] CRC32
12 98,3 [395DE53E] [5AAEC683] CRC32

Thanks to Robixxx

See also:
My Sleeping Karma - Moksha (2015)