Subcategories
Tags
Language
Tags

Mylène Farmer - Désobéissance (2018) {Limited Edition} Re-Up

Posted By: popsakov
Mylène Farmer - Désobéissance (2018) {Limited Edition} Re-Up

Mylène Farmer - Désobéissance (2018) {Limited Edition}
EAC Rip | FLAC (Img) + Cue + Log ~ 299 Mb | MP3 CBR320 ~ 105 Mb
Full Scans ~ 184 Mb | 00:43:29 | RAR 5% Recovery
Dance, Pop, Chanson | Stuffed Monkey #19075881812

Always a big event when she releases a new record, the pop empress presents her brand new set of songs. Overlooked by mass audiences, pop chameleon Mylene Farmer enjoys the adoration of millions in her native France, where, in the course of her 3-decade career, she has evolved from popstress to pop Empress. With 60+ singles, 31 million records sold, and an endless array of awards, accolades, and records broken, she is enjoying royal status and success equal to that of Madonna. "Disobedience" is her 11th studio effort, following the incredible "Interstellaires" from 2015. Mylene creates sexy and hypnotic compositions, completing the mysterious atmosphere with her astonishing, eerie vocals. Transcending the barrier of language, she can be as compelling as anyone of her international peers.

***************

Mylène Farmer - Désobéissance (2018) {Limited Edition} Re-Up

Track List:

01. Rolling Stone [3:46]
02. Sentimentale [4:16]
03. Desobeissance [3:59]
04. N'oublie pas [3:40]
05. Histoires de fesses [1:57]
06. Get up Girl [3:37]
07. Priere [3:35]
08. Au lecteur [3:15]
09. Des larmes [3:49]
10. Parler d'avenir [3:32]
11. On a besoin d'y croire [3:49]
12. Retenir l'eau [4:13]

Exact Audio Copy V1.3 from 2. September 2016

EAC extraction logfile from 1. October 2018, 20:45

Mylene Farmer / Desobeissance

Used drive : PIONEER BD-RW BDR-XD04 Adapter: 1 ID: 1

Read mode : Secure
Utilize accurate stream : Yes
Defeat audio cache : Yes
Make use of C2 pointers : No

Read offset correction : 667
Overread into Lead-In and Lead-Out : No
Fill up missing offset samples with silence : Yes
Delete leading and trailing silent blocks : No
Null samples used in CRC calculations : Yes
Used interface : Native Win32 interface for Win NT & 2000

Used output format : Internal WAV Routines
Sample format : 44.100 Hz; 16 Bit; Stereo


TOC of the extracted CD

Track | Start | Length | Start sector | End sector
––––––––––––––––––––––––––––-
1 | 0:00.00 | 3:46.16 | 0 | 16965
2 | 3:46.16 | 4:16.17 | 16966 | 36182
3 | 8:02.33 | 3:59.37 | 36183 | 54144
4 | 12:01.70 | 3:39.68 | 54145 | 70637
5 | 15:41.63 | 1:57.37 | 70638 | 79449
6 | 17:39.25 | 3:37.20 | 79450 | 95744
7 | 21:16.45 | 3:34.67 | 95745 | 111861
8 | 24:51.37 | 3:15.10 | 111862 | 126496
9 | 28:06.47 | 3:48.65 | 126497 | 143661
10 | 31:55.37 | 3:31.41 | 143662 | 159527
11 | 35:27.03 | 3:48.65 | 159528 | 176692
12 | 39:15.68 | 4:13.11 | 176693 | 195678


Range status and errors

Selected range

Filename C:\EAC Rips\Desobeissance\Mylene Farmer - Desobeissance.wav

Peak level 100.0 %
Extraction speed 4.3 X
Range quality 99.9 %
Test CRC E84553FD
Copy CRC E84553FD
Copy OK

No errors occurred


AccurateRip summary

Track 1 not present in database
Track 2 not present in database
Track 3 not present in database
Track 4 not present in database
Track 5 not present in database
Track 6 not present in database
Track 7 not present in database
Track 8 not present in database
Track 9 not present in database
Track 10 not present in database
Track 11 not present in database
Track 12 not present in database

None of the tracks are present in the AccurateRip database

End of status report

==== Log checksum 1E83AA00FB6ACB1A5DB43182065C9B0C4414368E905CE2EDEDD40996DFDA7D2C ====

[CUETools log; Date: 17.01.2021 15:00:36; Version: 2.1.6]
[CTDB TOCID: dH.C3BNELWRcx1mXFt2li_0lN7s-] found.
Track | CTDB Status
1 | (185/185) Accurately ripped
2 | (185/185) Accurately ripped
3 | (185/185) Accurately ripped
4 | (185/185) Accurately ripped
5 | (185/185) Accurately ripped
6 | (185/185) Accurately ripped
7 | (185/185) Accurately ripped
8 | (185/185) Accurately ripped
9 | (184/185) Accurately ripped
10 | (184/185) Accurately ripped
11 | (183/185) Accurately ripped
12 | (184/185) Accurately ripped
[AccurateRip ID: 00135568-00b3430b-ad0a310c] found.
Track [ CRC | V2 ] Status
01 [bc378217|7cc4834e] (00+32/35) Accurately ripped
02 [183acfb5|a2afa179] (00+33/36) Accurately ripped
03 [4ca197dd|cf63636b] (00+33/36) Accurately ripped
04 [42c8af7a|921888f7] (00+33/36) Accurately ripped
05 [2e7d9e88|b3ee3c50] (00+33/36) Accurately ripped
06 [42fcc550|50ff5d02] (00+33/36) Accurately ripped
07 [1759be03|eb2af698] (00+33/36) Accurately ripped
08 [31aba78e|aa280256] (00+33/36) Accurately ripped
09 [40e3f7b6|6d94bee0] (00+33/36) Accurately ripped
10 [253b3ca8|57193784] (00+33/36) Accurately ripped
11 [22262ded|9c05204f] (00+33/36) Accurately ripped
12 [000b46aa|86ff3fa4] (00+33/36) Accurately ripped
Offsetted by -12:
01 [1af48853] (00/35) No match (V2 was not tested)
02 [c0ade0f1] (00/36) No match (V2 was not tested)
03 [eb27d26d] (00/36) No match (V2 was not tested)
04 [0ee82f36] (00/36) No match (V2 was not tested)
05 [b9346aec] (00/36) No match (V2 was not tested)
06 [9c62605c] (00/36) No match (V2 was not tested)
07 [a0b37e8b] (00/36) No match (V2 was not tested)
08 [629afe82] (00/36) No match (V2 was not tested)
09 [f6a27d22] (00/36) No match (V2 was not tested)
10 [5d3a2264] (00/36) No match (V2 was not tested)
11 [a93fe06d] (00/36) No match (V2 was not tested)
12 [53f3ef5e] (00/36) No match (V2 was not tested)

Track Peak [ CRC32 ] [W/O NULL] [ LOG ]
– 100,0 [E84553FD] [D0304244] CRC32
01 100,0 [56B717C4] [CF346033]
02 100,0 [54A1F67F] [8B3C8EBC]
03 100,0 [65682ABA] [F3280BD8]
04 100,0 [69B98F0B] [17512B82]
05 100,0 [7501D865] [F0C0BA5F]
06 100,0 [C4DACB24] [146E8722]
07 100,0 [D8337F52] [76654337]
08 100,0 [EF220139] [95FDC16F]
09 100,0 [B9E4C2D7] [36139545]
10 99,2 [81B05294] [06C73860]
11 100,0 [5500939A] [4389F705]
12 100,0 [3CD5BC11] [DA72B74F]

Mylène Farmer - Désobéissance (2018) {Limited Edition} Re-Up


All thanks go to espoir

>>> Mylène Farmer in my Blog <<<

DOWNLOAD: