Subcategories

Mylene Farmer - Interstellaires (2015) [Limited Edition]

Posted By: popsakov
Mylene Farmer - Interstellaires (2015) [Limited Edition]

Mylene Farmer - Interstellaires (2015)
EAC Rip | FLAC (Img) + Cue + Log ~ 285 Mb
Scans (JPG, 300 dpi + PDF) ~ 125 Mb | RAR 5% Recovery
Pop | Polydor #475 985-3

2015 release, the 10th studio album by French singer, songwriter and pop culture icon Mylène Farmer. Interstellaires was produced by The Avener and Martin Kierszenbaum. Includes the single 'Stolen Car', a duet with British rock veteran Sting. This version of the much-loved Sting track has been completely reimagined by producer, The Avener. In the span of her 30-year career, French superstar, Mylène Farmer has sold over 11 million albums worldwide, released nine studio albums and six live albums, all of which reached diamond status in France. Mylène is the first female artist in history to sell out the 80,000 capacity "Stade de France" two nights in a row. On her last arena tour, Mylène's tickets were sold out a full year in advance. She has cultivated her fervently loyal fan base through consummate songwriting, classic melodies and ground-breaking videos.

***************

Mylene Farmer - Interstellaires (2015) [Limited Edition]

Track List:

01. Interstellaires [03:12]
02. Stolen Car [03:23]
03. A Rebours [04:12]
04. C'est pas moi [03:42]
05. Insondables [02:38]
06. Love Song [04:34]
07. Pas d'acces [03:18]
08. I want you to want me [03:06]
09. Voie Lactee [03:18]
10. City of Love [04:27]
11. Un jour ou l'autre [04:28]

Exact Audio Copy V1.0 beta 3 from 29. August 2011

EAC extraction logfile from 10. November 2015, 21:49

Mylène Farmer / Interstellaires

Used drive : PIONEER BD-RW BDR-XD04 Adapter: 0 ID: 0

Read mode : Secure
Utilize accurate stream : Yes
Defeat audio cache : Yes
Make use of C2 pointers : No

Read offset correction : 667
Overread into Lead-In and Lead-Out : No
Fill up missing offset samples with silence : Yes
Delete leading and trailing silent blocks : No
Null samples used in CRC calculations : Yes
Used interface : Native Win32 interface for Win NT & 2000

Used output format : Internal WAV Routines
Sample format : 44.100 Hz; 16 Bit; Stereo


TOC of the extracted CD

Track | Start | Length | Start sector | End sector
––––––––––––––––––––––––––––-
1 | 0:00.00 | 3:11.28 | 0 | 14352
2 | 3:11.28 | 3:22.46 | 14353 | 29548
3 | 6:33.74 | 4:11.19 | 29549 | 48392
4 | 10:45.18 | 3:41.32 | 48393 | 64999
5 | 14:26.50 | 2:37.42 | 65000 | 76816
6 | 17:04.17 | 4:33.52 | 76817 | 97343
7 | 21:37.69 | 3:17.16 | 97344 | 112134
8 | 24:55.10 | 3:06.00 | 112135 | 126084
9 | 28:01.10 | 3:17.12 | 126085 | 140871
10 | 31:18.22 | 4:26.31 | 140872 | 160852
11 | 35:44.53 | 4:27.21 | 160853 | 180898


Range status and errors

Selected range

Filename C:\Users\Espoir\Music\Interstellaires\Mylene Farmer - Interstellaires.wav

Peak level 100.0 %
Extraction speed 4.3 X
Range quality 99.9 %
Test CRC 5456F788
Copy CRC 5456F788
Copy OK

No errors occurred


AccurateRip summary

Track 1 not present in database
Track 2 not present in database
Track 3 not present in database
Track 4 not present in database
Track 5 not present in database
Track 6 not present in database
Track 7 not present in database
Track 8 not present in database
Track 9 not present in database
Track 10 not present in database
Track 11 not present in database

None of the tracks are present in the AccurateRip database

End of status report

==== Log checksum E441894B3147EE7DF617BBB75EF94E5C817511D9CAE5FEDFBD2C3BDF95EC135F ====

foobar2000 1.2.6 / Dynamic Range Meter 1.1.1
log date: 2015-11-11 11:38:42

––––––––––––––––––––––––––––––––––––––––
Analyzed: Mylene Farmer / Interstellaires
––––––––––––––––––––––––––––––––––––––––

DR Peak RMS Duration Track
––––––––––––––––––––––––––––––––––––––––
DR6 0.00 dB -8.72 dB 3:11 01-Interstellaires
DR6 -0.23 dB -8.69 dB 3:23 02-Stolen Car
DR7 0.00 dB -8.48 dB 4:11 03-A Rebours
DR6 0.00 dB -7.98 dB 3:41 04-C'est pas moi
DR8 0.00 dB -9.61 dB 2:38 05-Insondables
DR5 0.00 dB -7.91 dB 4:34 06-Love Song
DR7 0.00 dB -8.46 dB 3:17 07-Pas d'acces
DR8 -0.01 dB -10.34 dB 3:06 08-I want you to want me
DR7 0.00 dB -9.11 dB 3:17 09-Voie Lactee
DR6 0.00 dB -8.02 dB 4:26 10-City of Love
DR7 -0.03 dB -9.19 dB 4:27 11-Un jour ou l'autre
––––––––––––––––––––––––––––––––––––––––

Number of tracks: 11
Official DR value: DR7

Samplerate: 44100 Hz
Channels: 2
Bits per sample: 16
Bitrate: 943 kbps
Codec: FLAC
================================================================================

[CUETools log; Date: 11.11.2015 11:39:23; Version: 2.1.5]
[CTDB TOCID: 8iqoivrI07P7xV7PdT_Dgopm5qo-] found.
Track | CTDB Status
1 | (27/27) Accurately ripped
2 | (27/27) Accurately ripped
3 | (27/27) Accurately ripped
4 | (27/27) Accurately ripped
5 | (27/27) Accurately ripped
6 | (27/27) Accurately ripped
7 | (27/27) Accurately ripped
8 | (27/27) Accurately ripped
9 | (17/27) Accurately ripped, or (10/27) differs in 1 samples @01:42:21
10 | (27/27) Accurately ripped
11 | (27/27) Accurately ripped
[AccurateRip ID: 00100e8c-008bc13c-aa096b0b] disk not present in database.

Track Peak [ CRC32 ] [W/O NULL] [ LOG ]
– 100,0 [5456F788] [4203128B] CRC32
01 100,0 [F8E7023F] [39E4346A]
02 97,4 [FCC2BBD4] [0C3F028A]
03 100,0 [C6F18512] [7D70DD19]
04 100,0 [2A668635] [A7575DA7]
05 100,0 [59B4E074] [A4BB611F]
06 100,0 [66E0B506] [4B53C591]
07 100,0 [4325E898] [1720C9AE]
08 99,8 [0224DCE3] [26D5A0D6]
09 100,0 [6DD468E4] [802D9F26]
10 100,0 [C6B5D565] [9FB3050B]
11 99,6 [E2F2D405] [49B99D63]

Mylene Farmer - Interstellaires (2015) [Limited Edition]

All thanks go to espoir

Visit my blog!

Download:
Nitroflare: FLAC | Scans
Uploadable: FLAC | Scans

Turbobit: FLAC | Scans